  0
SECTION
  2
HEADER
  9
$ACADVER
  1
AC1018
  9
$ACADMAINTVER
 70
   104
  9
$DWGCODEPAGE
  3
ANSI_1252
  9
$LASTSAVEDBY
  1
e0gazzel
  9
$INSBASE
 10
0.0
 20
0.0
 30
0.0
  9
$EXTMIN
 10
-848.8830550502555
 20
-372.0100374391886
 30
-0.0015258207003583
  9
$EXTMAX
 10
1521.273501620481
 20
1522.065890886664
 30
0.0000000349246037
  9
$LIMMIN
 10
0.0
 20
0.0
  9
$LIMMAX
 10
12.0
 20
9.0
  9
$ORTHOMODE
 70
     0
  9
$REGENMODE
 70
     1
  9
$FILLMODE
 70
     1
  9
$QTEXTMODE
 70
     0
  9
$MIRRTEXT
 70
     1
  9
$LTSCALE
 40
1.0
  9
$ATTMODE
 70
     1
  9
$TEXTSIZE
 40
0.2
  9
$TRACEWID
 40
0.05
  9
$TEXTSTYLE
  7
Standard
  9
$CLAYER
  8
dist
  9
$CELTYPE
  6
ByLayer
  9
$CECOLOR
 62
   256
  9
$CELTSCALE
 40
1.0
  9
$DISPSILH
 70
     0
  9
$DIMSCALE
 40
400.0
  9
$DIMASZ
 40
0.18
  9
$DIMEXO
 40
0.0625
  9
$DIMDLI
 40
0.38
  9
$DIMRND
 40
0.0
  9
$DIMDLE
 40
0.0
  9
$DIMEXE
 40
0.18
  9
$DIMTP
 40
0.0
  9
$DIMTM
 40
0.0
  9
$DIMTXT
 40
0.18
  9
$DIMCEN
 40
0.09
  9
$DIMTSZ
 40
0.0
  9
$DIMTOL
 70
     0
  9
$DIMLIM
 70
     0
  9
$DIMTIH
 70
     1
  9
$DIMTOH
 70
     1
  9
$DIMSE1
 70
     0
  9
$DIMSE2
 70
     0
  9
$DIMTAD
 70
     0
  9
$DIMZIN
 70
     0
  9
$DIMBLK
  1

  9
$DIMASO
 70
     1
  9
$DIMSHO
 70
     1
  9
$DIMPOST
  1

  9
$DIMAPOST
  1

  9
$DIMALT
 70
     1
  9
$DIMALTD
 70
     1
  9
$DIMALTF
 40
0.0393701
  9
$DIMLFAC
 40
1.0
  9
$DIMTOFL
 70
     0
  9
$DIMTVP
 40
0.0
  9
$DIMTIX
 70
     0
  9
$DIMSOXD
 70
     0
  9
$DIMSAH
 70
     0
  9
$DIMBLK1
  1

  9
$DIMBLK2
  1

  9
$DIMSTYLE
  2
Standard
  9
$DIMCLRD
 70
     0
  9
$DIMCLRE
 70
     0
  9
$DIMCLRT
 70
     0
  9
$DIMTFAC
 40
1.0
  9
$DIMGAP
 40
0.09
  9
$DIMJUST
 70
     0
  9
$DIMSD1
 70
     0
  9
$DIMSD2
 70
     0
  9
$DIMTOLJ
 70
     1
  9
$DIMTZIN
 70
     0
  9
$DIMALTZ
 70
     0
  9
$DIMALTTZ
 70
     0
  9
$DIMUPT
 70
     0
  9
$DIMDEC
 70
     0
  9
$DIMTDEC
 70
     0
  9
$DIMALTU
 70
     2
  9
$DIMALTTD
 70
     1
  9
$DIMTXSTY
  7
Standard
  9
$DIMAUNIT
 70
     0
  9
$DIMADEC
 70
     0
  9
$DIMALTRND
 40
0.0
  9
$DIMAZIN
 70
     0
  9
$DIMDSEP
 70
    46
  9
$DIMATFIT
 70
     3
  9
$DIMFRAC
 70
     0
  9
$DIMLDRBLK
  1

  9
$DIMLUNIT
 70
     2
  9
$DIMLWD
 70
    -2
  9
$DIMLWE
 70
    -2
  9
$DIMTMOVE
 70
     0
  9
$LUNITS
 70
     2
  9
$LUPREC
 70
     4
  9
$SKETCHINC
 40
0.1
  9
$FILLETRAD
 40
0.0
  9
$AUNITS
 70
     0
  9
$AUPREC
 70
     0
  9
$MENU
  1
.
  9
$ELEVATION
 40
0.0
  9
$PELEVATION
 40
0.0
  9
$THICKNESS
 40
0.0
  9
$LIMCHECK
 70
     0
  9
$CHAMFERA
 40
0.5
  9
$CHAMFERB
 40
0.5
  9
$CHAMFERC
 40
1.0
  9
$CHAMFERD
 40
0.0
  9
$SKPOLY
 70
     0
  9
$TDCREATE
 40
2455875.423755625
  9
$TDUCREATE
 40
2455875.382088958
  9
$TDUPDATE
 40
2456001.459003253
  9
$TDUUPDATE
 40
2456001.417336585
  9
$TDINDWG
 40
0.0278012616
  9
$TDUSRTIMER
 40
0.0278012153
  9
$USRTIMER
 70
     1
  9
$ANGBASE
 50
0.0
  9
$ANGDIR
 70
     0
  9
$PDMODE
 70
     0
  9
$PDSIZE
 40
0.0
  9
$PLINEWID
 40
0.0
  9
$SPLFRAME
 70
     0
  9
$SPLINETYPE
 70
     6
  9
$SPLINESEGS
 70
     8
  9
$HANDSEED
  5
A50
  9
$SURFTAB1
 70
     6
  9
$SURFTAB2
 70
     6
  9
$SURFTYPE
 70
     6
  9
$SURFU
 70
     6
  9
$SURFV
 70
     6
  9
$UCSBASE
  2

  9
$UCSNAME
  2

  9
$UCSORG
 10
0.0
 20
0.0
 30
0.0
  9
$UCSXDIR
 10
1.0
 20
0.0
 30
0.0
  9
$UCSYDIR
 10
0.0
 20
1.0
 30
0.0
  9
$UCSORTHOREF
  2

  9
$UCSORTHOVIEW
 70
     0
  9
$UCSORGTOP
 10
0.0
 20
0.0
 30
0.0
  9
$UCSORGBOTTOM
 10
0.0
 20
0.0
 30
0.0
  9
$UCSORGLEFT
 10
0.0
 20
0.0
 30
0.0
  9
$UCSORGRIGHT
 10
0.0
 20
0.0
 30
0.0
  9
$UCSORGFRONT
 10
0.0
 20
0.0
 30
0.0
  9
$UCSORGBACK
 10
0.0
 20
0.0
 30
0.0
  9
$PUCSBASE
  2

  9
$PUCSNAME
  2

  9
$PUCSORG
 10
0.0
 20
0.0
 30
0.0
  9
$PUCSXDIR
 10
1.0
 20
0.0
 30
0.0
  9
$PUCSYDIR
 10
0.0
 20
1.0
 30
0.0
  9
$PUCSORTHOREF
  2

  9
$PUCSORTHOVIEW
 70
     0
  9
$PUCSORGTOP
 10
0.0
 20
0.0
 30
0.0
  9
$PUCSORGBOTTOM
 10
0.0
 20
0.0
 30
0.0
  9
$PUCSORGLEFT
 10
0.0
 20
0.0
 30
0.0
  9
$PUCSORGRIGHT
 10
0.0
 20
0.0
 30
0.0
  9
$PUCSORGFRONT
 10
0.0
 20
0.0
 30
0.0
  9
$PUCSORGBACK
 10
0.0
 20
0.0
 30
0.0
  9
$USERI1
 70
     0
  9
$USERI2
 70
     0
  9
$USERI3
 70
     0
  9
$USERI4
 70
     0
  9
$USERI5
 70
     0
  9
$USERR1
 40
0.0
  9
$USERR2
 40
0.0
  9
$USERR3
 40
0.0
  9
$USERR4
 40
0.0
  9
$USERR5
 40
0.0
  9
$WORLDVIEW
 70
     1
  9
$SHADEDGE
 70
     3
  9
$SHADEDIF
 70
    70
  9
$TILEMODE
 70
     1
  9
$MAXACTVP
 70
    64
  9
$PINSBASE
 10
0.0
 20
0.0
 30
0.0
  9
$PLIMCHECK
 70
     0
  9
$PEXTMIN
 10
1.000000000000000E+20
 20
1.000000000000000E+20
 30
1.000000000000000E+20
  9
$PEXTMAX
 10
-1.000000000000000E+20
 20
-1.000000000000000E+20
 30
-1.000000000000000E+20
  9
$PLIMMIN
 10
0.0
 20
0.0
  9
$PLIMMAX
 10
12.0
 20
9.0
  9
$UNITMODE
 70
     0
  9
$VISRETAIN
 70
     1
  9
$PLINEGEN
 70
     0
  9
$PSLTSCALE
 70
     1
  9
$TREEDEPTH
 70
  3020
  9
$CMLSTYLE
  2
Standard
  9
$CMLJUST
 70
     0
  9
$CMLSCALE
 40
1.0
  9
$PROXYGRAPHICS
 70
     1
  9
$MEASUREMENT
 70
     0
  9
$CELWEIGHT
370
    -1
  9
$ENDCAPS
280
     0
  9
$JOINSTYLE
280
     0
  9
$LWDISPLAY
290
     0
  9
$INSUNITS
 70
    13
  9
$HYPERLINKBASE
  1

  9
$STYLESHEET
  1

  9
$XEDIT
290
     1
  9
$CEPSNTYPE
380
     0
  9
$PSTYLEMODE
290
     1
  9
$FINGERPRINTGUID
  2
{E4CCFB67-5D5E-4628-9CB2-2B6896DFF9EB}
  9
$VERSIONGUID
  2
{BC4AE6CF-F310-4576-AF7E-17409A7934E7}
  9
$EXTNAMES
290
     1
  9
$PSVPSCALE
 40
0.0
  9
$OLESTARTUP
290
     0
  9
$SORTENTS
280
   127
  9
$INDEXCTL
280
     0
  9
$HIDETEXT
280
     1
  9
$XCLIPFRAME
290
     0
  9
$HALOGAP
280
     0
  9
$OBSCOLOR
 70
   257
  9
$OBSLTYPE
280
     0
  9
$INTERSECTIONDISPLAY
280
     0
  9
$INTERSECTIONCOLOR
 70
   257
  9
$DIMASSOC
280
     2
  9
$PROJECTNAME
  1

  0
ENDSEC
  0
SECTION
  2
CLASSES
  0
CLASS
  1
ACDBDICTIONARYWDFLT
  2
AcDbDictionaryWithDefault
  3
ObjectDBX Classes
 90
        0
 91
        1
280
     0
281
     0
  0
CLASS
  1
VISUALSTYLE
  2
AcDbVisualStyle
  3
ObjectDBX Classes
 90
     4095
 91
       26
280
     0
281
     0
  0
CLASS
  1
SCALE
  2
AcDbScale
  3
ObjectDBX Classes
 90
     1153
 91
       33
280
     0
281
     0
  0
CLASS
  1
MATERIAL
  2
AcDbMaterial
  3
ObjectDBX Classes
 90
     1153
 91
        3
280
     0
281
     0
  0
CLASS
  1
TABLESTYLE
  2
AcDbTableStyle
  3
ObjectDBX Classes
 90
     4095
 91
        1
280
     0
281
     0
  0
CLASS
  1
MLEADERSTYLE
  2
AcDbMLeaderStyle
  3
ACDB_MLEADERSTYLE_CLASS
 90
     4095
 91
        1
280
     0
281
     0
  0
CLASS
  1
DICTIONARYVAR
  2
AcDbDictionaryVar
  3
ObjectDBX Classes
 90
        0
 91
       24
280
     0
281
     0
  0
CLASS
  1
SORTENTSTABLE
  2
AcDbSortentsTable
  3
ObjectDBX Classes
 90
        0
 91
        1
280
     0
281
     0
  0
CLASS
  1
DIMASSOC
  2
AcDbDimAssoc
  3
"AcDbDimAssoc|Product Desc:     AcDim ARX App For Dimension|Company:          Autodesk, Inc.|WEB Address:      www.autodesk.com"
 90
        0
 91
        6
280
     0
281
     0
  0
CLASS
  1
CELLSTYLEMAP
  2
AcDbCellStyleMap
  3
ObjectDBX Classes
 90
     1152
 91
        2
280
     0
281
     0
  0
ENDSEC
  0
SECTION
  2
TABLES
  0
TABLE
  2
VPORT
  5
8
330
0
100
AcDbSymbolTable
 70
     1
  0
VPORT
  5
29
330
8
100
AcDbSymbolTableRecord
100
AcDbViewportTableRecord
  2
*Active
 70
     0
 10
0.0
 20
0.0
 11
1.0
 21
1.0
 12
91.02683852790324
 22
451.2539346163873
 13
0.0
 23
0.0
 14
0.5
 24
0.5
 15
0.5
 25
0.5
 16
0.0
 26
0.0
 36
1.0
 17
0.0
 27
0.0
 37
0.0
 40
1678.638238333479
 41
2.106710671067106
 42
50.0
 43
0.0
 44
0.0
 50
0.0
 51
0.0
 71
     0
 72
   100
 73
     1
 74
     3
 75
     0
 76
     0
 77
     0
 78
     0
281
     0
 65
     1
110
0.0
120
0.0
130
0.0
111
1.0
121
0.0
131
0.0
112
0.0
122
1.0
132
0.0
 79
     0
146
0.0
1001
ACAD_NAV_VCDISPLAY
1070
     3
  0
ENDTAB
  0
TABLE
  2
LTYPE
  5
5
330
0
100
AcDbSymbolTable
 70
     3
  0
LTYPE
  5
14
330
5
100
AcDbSymbolTableRecord
100
AcDbLinetypeTableRecord
  2
ByBlock
 70
     0
  3

 72
    65
 73
     0
 40
0.0
  0
LTYPE
  5
15
330
5
100
AcDbSymbolTableRecord
100
AcDbLinetypeTableRecord
  2
ByLayer
 70
     0
  3

 72
    65
 73
     0
 40
0.0
  0
LTYPE
  5
16
330
5
100
AcDbSymbolTableRecord
100
AcDbLinetypeTableRecord
  2
Continuous
 70
     0
  3
Solid line
 72
    65
 73
     0
 40
0.0
  0
ENDTAB
  0
TABLE
  2
LAYER
  5
2
102
{ACAD_XDICTIONARY
360
93A
102
}
330
0
100
AcDbSymbolTable
 70
    21
  0
LAYER
  5
10
102
{ACAD_XDICTIONARY
360
1B3
102
}
330
2
100
AcDbSymbolTableRecord
100
AcDbLayerTableRecord
  2
0
 70
     0
 62
     7
  6
Continuous
370
    -3
390
F
  0
LAYER
  5
60
102
{ACAD_XDICTIONARY
360
1B7
102
}
330
2
100
AcDbSymbolTableRecord
100
AcDbLayerTableRecord
  2
ohmic
 70
     0
 62
    16
420
  8388608
  6
Continuous
370
    -3
390
F
  0
LAYER
  5
83
102
{ACAD_XDICTIONARY
360
1BB
102
}
330
2
100
AcDbSymbolTableRecord
100
AcDbLayerTableRecord
  2
met1
 70
     0
 62
   136
420
    32896
  6
Continuous
370
    -3
390
F
  0
LAYER
  5
B4
102
{ACAD_XDICTIONARY
360
1BD
102
}
330
2
100
AcDbSymbolTableRecord
100
AcDbLayerTableRecord
  2
via2
 70
     0
 62
   216
420
  8388736
  6
Continuous
370
    -3
390
F
  0
LAYER
  5
F3
102
{ACAD_XDICTIONARY
360
1BF
102
}
330
2
100
AcDbSymbolTableRecord
100
AcDbLayerTableRecord
  2
met2
 70
     0
 62
    56
420
  8421376
  6
Continuous
370
    -3
390
F
  0
LAYER
  5
123
102
{ACAD_XDICTIONARY
360
1C3
102
}
330
2
100
AcDbSymbolTableRecord
100
AcDbLayerTableRecord
  2
backvia
 70
     0
 62
     3
420
    65280
  6
Continuous
370
    -3
390
F
  0
LAYER
  5
13A
102
{ACAD_XDICTIONARY
360
1C5
102
}
330
2
100
AcDbSymbolTableRecord
100
AcDbLayerTableRecord
  2
street
 70
     0
 62
     5
420
      255
  6
Continuous
370
    -3
390
F
  0
LAYER
  5
184
102
{ACAD_XDICTIONARY
360
1D7
102
}
330
2
100
AcDbSymbolTableRecord
100
AcDbLayerTableRecord
  2
noDRC
 70
     0
 62
    56
420
  8421376
  6
Continuous
370
    -3
390
F
  0
LAYER
  5
858
330
2
100
AcDbSymbolTableRecord
100
AcDbLayerTableRecord
  2
dist
 70
     0
 62
   250
  6
Continuous
370
    -3
390
F
1001
AcAecLayerStandard
1000

1000

1001
AcCmTransparency
1071
        0
  0
LAYER
  5
861
330
2
100
AcDbSymbolTableRecord
100
AcDbLayerTableRecord
  2
Defpoints
 70
     0
 62
     7
  6
Continuous
290
     0
370
    -3
390
F
  0
ENDTAB
  0
TABLE
  2
STYLE
  5
3
330
0
100
AcDbSymbolTable
 70
     1
  0
STYLE
  5
11
330
3
100
AcDbSymbolTableRecord
100
AcDbTextStyleTableRecord
  2
Standard
 70
     0
 40
0.0
 41
1.0
 50
0.0
 71
     0
 42
0.2
  3
sanss___.ttf
  4

1001
ACAD
1000
SansSerif
1071
      514
  0
ENDTAB
  0
TABLE
  2
VIEW
  5
6
330
0
100
AcDbSymbolTable
 70
     2
  0
ENDTAB
  0
TABLE
  2
UCS
  5
7
330
0
100
AcDbSymbolTable
 70
     0
  0
ENDTAB
  0
TABLE
  2
APPID
  5
9
330
0
100
AcDbSymbolTable
 70
    13
  0
APPID
  5
12
330
9
100
AcDbSymbolTableRecord
100
AcDbRegAppTableRecord
  2
ACAD
 70
     0
  0
APPID
  5
1D9
330
9
100
AcDbSymbolTableRecord
100
AcDbRegAppTableRecord
  2
ACAD_NAV_VCDISPLAY
 70
     0
  0
APPID
  5
859
330
9
100
AcDbSymbolTableRecord
100
AcDbRegAppTableRecord
  2
AcAecLayerStandard
 70
     0
  0
APPID
  5
85A
330
9
100
AcDbSymbolTableRecord
100
AcDbRegAppTableRecord
  2
AcCmTransparency
 70
     0
  0
APPID
  5
85B
330
9
100
AcDbSymbolTableRecord
100
AcDbRegAppTableRecord
  2
ACAD_DSTYLE_DIMTEXT_FILL
 70
     0
  0
APPID
  5
85C
330
9
100
AcDbSymbolTableRecord
100
AcDbRegAppTableRecord
  2
ACAD_DSTYLE_DIMEXT_ENABLED
 70
     0
  0
APPID
  5
85D
330
9
100
AcDbSymbolTableRecord
100
AcDbRegAppTableRecord
  2
ACAD_DSTYLE_DIMEXT_LENGTH
 70
     0
  0
APPID
  5
85E
330
9
100
AcDbSymbolTableRecord
100
AcDbRegAppTableRecord
  2
ACAD_DSTYLE_DIMJOGGED_JOGANGLE_SYMBOL
 70
     0
  0
APPID
  5
926
330
9
100
AcDbSymbolTableRecord
100
AcDbRegAppTableRecord
  2
ACAD_EXEMPT_FROM_CAD_STANDARDS
 70
     0
  0
APPID
  5
A14
330
9
100
AcDbSymbolTableRecord
100
AcDbRegAppTableRecord
  2
ACAD_DSTYLE_DIM_LINETYPE
 70
     0
  0
APPID
  5
A15
330
9
100
AcDbSymbolTableRecord
100
AcDbRegAppTableRecord
  2
ACAD_DSTYLE_DIM_EXT1_LINETYPE
 70
     0
  0
APPID
  5
A16
330
9
100
AcDbSymbolTableRecord
100
AcDbRegAppTableRecord
  2
ACAD_DSTYLE_DIM_EXT2_LINETYPE
 70
     0
  0
APPID
  5
A4F
330
9
100
AcDbSymbolTableRecord
100
AcDbRegAppTableRecord
  2
ACAD_MLEADERVER
 70
     0
  0
ENDTAB
  0
TABLE
  2
DIMSTYLE
  5
A
330
0
100
AcDbSymbolTable
 70
     2
100
AcDbDimStyleTable
 71
     1
340
27
  0
DIMSTYLE
105
27
102
{ACAD_REACTORS
330
860
330
885
330
89F
330
8C3
330
8DD
330
901
102
}
330
A
100
AcDbSymbolTableRecord
100
AcDbDimStyleTableRecord
  2
Standard
 70
     0
 40
400.0
143
0.0393701
170
     1
171
     1
271
     0
272
     0
274
     1
340
11
1001
ACAD_DSTYLE_DIMEXT_ENABLED
1070
   383
1070
     0
1001
ACAD_DSTYLE_DIMEXT_LENGTH
1070
   378
1040
0.18
1001
ACAD_DSTYLE_DIMJOGGED_JOGANGLE_SYMBOL
1070
   384
1040
0.7853981633974483
1001
ACAD_DSTYLE_DIM_LINETYPE
1070
   380
1005
14
1001
ACAD_DSTYLE_DIM_EXT1_LINETYPE
1070
   381
1005
14
1001
ACAD_DSTYLE_DIM_EXT2_LINETYPE
1070
   382
1005
14
  0
ENDTAB
  0
TABLE
  2
BLOCK_RECORD
  5
1
330
0
100
AcDbSymbolTable
 70
     8
  0
BLOCK_RECORD
  5
1F
102
{ACAD_XDICTIONARY
360
1E6
102
}
330
1
100
AcDbSymbolTableRecord
100
AcDbBlockTableRecord
  2
*Model_Space
340
22
  0
BLOCK_RECORD
  5
1B
330
1
100
AcDbSymbolTableRecord
100
AcDbBlockTableRecord
  2
*Paper_Space
340
1E
  0
BLOCK_RECORD
  5
23
330
1
100
AcDbSymbolTableRecord
100
AcDbBlockTableRecord
  2
*Paper_Space0
340
26
  0
BLOCK_RECORD
  5
862
330
1
100
AcDbSymbolTableRecord
100
AcDbBlockTableRecord
  2
*D1
340
0
  0
BLOCK_RECORD
  5
886
330
1
100
AcDbSymbolTableRecord
100
AcDbBlockTableRecord
  2
*D2
340
0
  0
BLOCK_RECORD
  5
8A0
330
1
100
AcDbSymbolTableRecord
100
AcDbBlockTableRecord
  2
*D3
340
0
  0
BLOCK_RECORD
  5
8C4
330
1
100
AcDbSymbolTableRecord
100
AcDbBlockTableRecord
  2
*D4
340
0
  0
BLOCK_RECORD
  5
8DE
330
1
100
AcDbSymbolTableRecord
100
AcDbBlockTableRecord
  2
*D5
340
0
  0
BLOCK_RECORD
  5
902
330
1
100
AcDbSymbolTableRecord
100
AcDbBlockTableRecord
  2
*D6
340
0
  0
ENDTAB
  0
ENDSEC
  0
SECTION
  2
BLOCKS
  0
BLOCK
  5
20
330
1F
100
AcDbEntity
  8
0
100
AcDbBlockBegin
  2
*Model_Space
 70
     0
 10
0.0
 20
0.0
 30
0.0
  3
*Model_Space
  1

  0
ENDBLK
  5
21
330
1F
100
AcDbEntity
  8
0
100
AcDbBlockEnd
  0
BLOCK
  5
1C
330
1B
100
AcDbEntity
 67
     1
  8
0
100
AcDbBlockBegin
  2
*Paper_Space
 70
     0
 10
0.0
 20
0.0
 30
0.0
  3
*Paper_Space
  1

  0
ENDBLK
  5
1D
330
1B
100
AcDbEntity
 67
     1
  8
0
100
AcDbBlockEnd
  0
BLOCK
  5
24
330
23
100
AcDbEntity
 67
     1
  8
0
100
AcDbBlockBegin
  2
*Paper_Space0
 70
     0
 10
0.0
 20
0.0
 30
0.0
  3
*Paper_Space0
  1

  0
ENDBLK
  5
25
330
23
100
AcDbEntity
 67
     1
  8
0
100
AcDbBlockEnd
  0
BLOCK
  5
863
330
862
100
AcDbEntity
  8
0
100
AcDbBlockBegin
  2
*D1
 70
     1
 10
0.0
 20
0.0
 30
0.0
  3
*D1
  1

  0
LINE
  5
99C
330
862
100
AcDbEntity
  8
dist
  6
ByBlock
 62
     0
440
 16777216
370
    -2
100
AcDbLine
 10
-0.0000000000000015
 20
-25.0
 30
0.0
 11
-0.0000000000000136
 21
-222.0
 31
0.0
  0
LINE
  5
99D
330
862
100
AcDbEntity
  8
dist
  6
ByBlock
 62
     0
440
 16777216
370
    -2
100
AcDbLine
 10
398.6
 20
43.5
 30
0.0
 11
398.6
 21
-222.0
 31
0.0
  0
LINE
  5
99E
330
862
100
AcDbEntity
  8
dist
  6
ByBlock
 62
     0
440
 16777216
370
    -2
100
AcDbLine
 10
71.99999999999999
 20
-150.0
 30
0.0
 11
326.6
 21
-150.0
 31
0.0
  0
LINE
  5
99F
330
862
100
AcDbEntity
  8
dist
  6
ByBlock
 62
     0
440
 16777216
370
    -2
100
AcDbLine
 10
398.6
 20
-150.0
 30
0.0
 11
470.5999999999999
 21
-150.0
 31
0.0
  0
SOLID
  5
9A0
330
862
100
AcDbEntity
  8
dist
 62
     0
440
 16777216
100
AcDbTrace
 10
71.99999999999999
 20
-138.0
 30
0.0
 11
71.99999999999999
 21
-162.0
 31
0.0
 12
-0.0000000000000092
 22
-150.0
 32
0.0
 13
-0.0000000000000092
 23
-150.0
 33
0.0
  0
SOLID
  5
9A1
330
862
100
AcDbEntity
  8
dist
 62
     0
440
 16777216
100
AcDbTrace
 10
326.6
 20
-138.0
 30
0.0
 11
326.6
 21
-162.0
 31
0.0
 12
398.6
 22
-150.0
 32
0.0
 13
398.6
 23
-150.0
 33
0.0
  0
MTEXT
  5
9A2
330
862
100
AcDbEntity
  8
dist
 62
     0
440
 16777216
100
AcDbMText
 10
721.2666666666666
 20
-150.0
 30
0.0
 40
72.0
 41
0.0
 71
     5
 72
     1
  1
\A1;399 [15.7]
 73
     1
 44
1.0
  0
POINT
  5
9A3
330
862
100
AcDbEntity
  8
Defpoints
 62
     0
440
 16777216
100
AcDbPoint
 10
0.0
 20
0.0
 30
0.0
  0
POINT
  5
9A4
330
862
100
AcDbEntity
  8
Defpoints
 62
     0
440
 16777216
100
AcDbPoint
 10
398.6
 20
68.5
 30
0.0
  0
POINT
  5
9A5
330
862
100
AcDbEntity
  8
Defpoints
 62
     0
440
 16777216
100
AcDbPoint
 10
398.6
 20
-150.0
 30
0.0
  0
ENDBLK
  5
864
330
862
100
AcDbEntity
  8
0
100
AcDbBlockEnd
  0
BLOCK
  5
887
330
886
100
AcDbEntity
  8
0
100
AcDbBlockBegin
  2
*D2
 70
     1
 10
0.0
 20
0.0
 30
0.0
  3
*D2
  1

  0
LINE
  5
9A6
330
886
100
AcDbEntity
  8
dist
  6
ByBlock
 62
     0
440
 16777216
370
    -2
100
AcDbLine
 10
-0.0000000000000015
 20
-24.99999999999996
 30
0.0
 11
-0.0000000000000228
 21
-372.0
 31
0.0
  0
LINE
  5
9A7
330
886
100
AcDbEntity
  8
dist
  6
ByBlock
 62
     0
440
 16777216
370
    -2
100
AcDbLine
 10
980.0
 20
-24.99999999999996
 30
0.0
 11
980.0
 21
-372.0
 31
0.0
  0
LINE
  5
9A8
330
886
100
AcDbEntity
  8
dist
  6
ByBlock
 62
     0
440
 16777216
370
    -2
100
AcDbLine
 10
71.99999999999999
 20
-300.0
 30
0.0
 11
239.6296296296296
 21
-300.0
 31
0.0
  0
LINE
  5
9A9
330
886
100
AcDbEntity
  8
dist
  6
ByBlock
 62
     0
440
 16777216
370
    -2
100
AcDbLine
 10
908.0
 20
-300.0
 30
0.0
 11
740.3703703703704
 21
-300.0
 31
0.0
  0
SOLID
  5
9AA
330
886
100
AcDbEntity
  8
dist
 62
     0
440
 16777216
100
AcDbTrace
 10
71.99999999999999
 20
-288.0
 30
0.0
 11
71.99999999999999
 21
-312.0
 31
0.0
 12
-0.0000000000000184
 22
-300.0
 32
0.0
 13
-0.0000000000000184
 23
-300.0
 33
0.0
  0
SOLID
  5
9AB
330
886
100
AcDbEntity
  8
dist
 62
     0
440
 16777216
100
AcDbTrace
 10
908.0
 20
-288.0
 30
0.0
 11
908.0
 21
-312.0
 31
0.0
 12
980.0
 22
-300.0
 32
0.0
 13
980.0
 23
-300.0
 33
0.0
  0
MTEXT
  5
9AC
330
886
100
AcDbEntity
  8
dist
 62
     0
440
 16777216
100
AcDbMText
 10
490.0
 20
-300.0
 30
0.0
 40
72.0
 41
0.0
 71
     5
 72
     1
  1
\A1;980 [38.6]
 73
     1
 44
1.0
  0
POINT
  5
9AD
330
886
100
AcDbEntity
  8
Defpoints
 62
     0
440
 16777216
100
AcDbPoint
 10
0.0
 20
0.0000000000000355
 30
0.0
  0
POINT
  5
9AE
330
886
100
AcDbEntity
  8
Defpoints
 62
     0
440
 16777216
100
AcDbPoint
 10
980.0
 20
0.0000000000000355
 30
0.0
  0
POINT
  5
9AF
330
886
100
AcDbEntity
  8
Defpoints
 62
     0
440
 16777216
100
AcDbPoint
 10
980.0
 20
-300.0
 30
0.0
  0
ENDBLK
  5
888
330
886
100
AcDbEntity
  8
0
100
AcDbBlockEnd
  0
BLOCK
  5
8A1
330
8A0
100
AcDbEntity
  8
0
100
AcDbBlockBegin
  2
*D3
 70
     1
 10
0.0
 20
0.0
 30
0.0
  3
*D3
  1

  0
LINE
  5
9CA
330
8A0
100
AcDbEntity
  8
dist
  6
ByBlock
 62
     0
440
 16777216
370
    -2
100
AcDbLine
 10
-25.0
 20
0.0000000000000071
 30
0.0
 11
-372.0000000000002
 21
0.0000000000001054
 31
0.0
  0
LINE
  5
9CB
330
8A0
100
AcDbEntity
  8
dist
  6
ByBlock
 62
     0
440
 16777216
370
    -2
100
AcDbLine
 10
40.0
 20
678.8999999999999
 30
0.0
 11
-372.0
 21
678.9000000000001
 31
0.0
  0
LINE
  5
9CC
330
8A0
100
AcDbEntity
  8
dist
  6
ByBlock
 62
     0
440
 16777216
370
    -2
100
AcDbLine
 10
-300.0000000000002
 20
72.00000000000009
 30
0.0
 11
-300.0000000000001
 21
256.8327160493828
 31
0.0
  0
LINE
  5
9CD
330
8A0
100
AcDbEntity
  8
dist
  6
ByBlock
 62
     0
440
 16777216
370
    -2
100
AcDbLine
 10
-300.0
 20
606.9
 30
0.0
 11
-300.0
 21
422.0672839506174
 31
0.0
  0
SOLID
  5
9CE
330
8A0
100
AcDbEntity
  8
dist
 62
     0
440
 16777216
100
AcDbTrace
 10
-312.0000000000002
 20
72.00000000000009
 30
0.0
 11
-288.0000000000002
 21
72.00000000000009
 31
0.0
 12
-300.0000000000002
 22
0.000000000000085
 32
0.0
 13
-300.0000000000002
 23
0.000000000000085
 33
0.0
  0
SOLID
  5
9CF
330
8A0
100
AcDbEntity
  8
dist
 62
     0
440
 16777216
100
AcDbTrace
 10
-312.0
 20
606.9
 30
0.0
 11
-288.0000000000001
 21
606.9
 31
0.0
 12
-300.0
 22
678.9000000000001
 32
0.0
 13
-300.0
 23
678.9000000000001
 33
0.0
  0
MTEXT
  5
9D0
330
8A0
100
AcDbEntity
  8
dist
 62
     0
440
 16777216
100
AcDbMText
 10
-300.0000000000002
 20
339.45
 30
0.0
 40
72.0
 41
0.0
 71
     5
 72
     1
  1
\A1;679 [26.7]
 73
     1
 44
1.0
  0
POINT
  5
9D1
330
8A0
100
AcDbEntity
  8
Defpoints
 62
     0
440
 16777216
100
AcDbPoint
 10
0.0
 20
0.0
 30
0.0
  0
POINT
  5
9D2
330
8A0
100
AcDbEntity
  8
Defpoints
 62
     0
440
 16777216
100
AcDbPoint
 10
65.0
 20
678.8999999999999
 30
0.0
  0
POINT
  5
9D3
330
8A0
100
AcDbEntity
  8
Defpoints
 62
     0
440
 16777216
100
AcDbPoint
 10
-300.0
 20
678.9000000000001
 30
0.0
  0
ENDBLK
  5
8A2
330
8A0
100
AcDbEntity
  8
0
100
AcDbBlockEnd
  0
BLOCK
  5
8C5
330
8C4
100
AcDbEntity
  8
0
100
AcDbBlockBegin
  2
*D4
 70
     1
 10
0.0
 20
0.0
 30
0.0
  3
*D4
  1

  0
LINE
  5
9F2
330
8C4
100
AcDbEntity
  8
dist
  6
ByBlock
 62
     0
440
 16777216
370
    -2
100
AcDbLine
 10
-25.0
 20
0.0000000000000071
 30
0.0
 11
-672.0000000000002
 21
0.0000000000001904
 31
0.0
  0
LINE
  5
9F3
330
8C4
100
AcDbEntity
  8
dist
  6
ByBlock
 62
     0
440
 16777216
370
    -2
100
AcDbLine
 10
-25.0
 20
1200.0
 30
0.0
 11
-672.0
 21
1200.0
 31
0.0
  0
LINE
  5
9F4
330
8C4
100
AcDbEntity
  8
dist
  6
ByBlock
 62
     0
440
 16777216
370
    -2
100
AcDbLine
 10
-600.0000000000002
 20
72.00000000000017
 30
0.0
 11
-600.0
 21
517.3827160493828
 31
0.0
  0
LINE
  5
9F5
330
8C4
100
AcDbEntity
  8
dist
  6
ByBlock
 62
     0
440
 16777216
370
    -2
100
AcDbLine
 10
-600.0
 20
1128.0
 30
0.0
 11
-600.0
 21
682.6172839506174
 31
0.0
  0
SOLID
  5
9F6
330
8C4
100
AcDbEntity
  8
dist
 62
     0
440
 16777216
100
AcDbTrace
 10
-612.0000000000002
 20
72.00000000000018
 30
0.0
 11
-588.0000000000002
 21
72.00000000000017
 31
0.0
 12
-600.0000000000002
 22
0.00000000000017
 32
0.0
 13
-600.0000000000002
 23
0.00000000000017
 33
0.0
  0
SOLID
  5
9F7
330
8C4
100
AcDbEntity
  8
dist
 62
     0
440
 16777216
100
AcDbTrace
 10
-612.0
 20
1128.0
 30
0.0
 11
-588.0
 21
1128.0
 31
0.0
 12
-600.0
 22
1200.0
 32
0.0
 13
-600.0
 23
1200.0
 33
0.0
  0
MTEXT
  5
9F8
330
8C4
100
AcDbEntity
  8
dist
 62
     0
440
 16777216
100
AcDbMText
 10
-600.0000000000002
 20
600.0
 30
0.0
 40
72.0
 41
0.0
 71
     5
 72
     1
  1
\A1;1200 [47.2]
 73
     1
 44
1.0
  0
POINT
  5
9F9
330
8C4
100
AcDbEntity
  8
Defpoints
 62
     0
440
 16777216
100
AcDbPoint
 10
0.0
 20
0.0
 30
0.0
  0
POINT
  5
9FA
330
8C4
100
AcDbEntity
  8
Defpoints
 62
     0
440
 16777216
100
AcDbPoint
 10
0.0
 20
1200.0
 30
0.0
  0
POINT
  5
9FB
330
8C4
100
AcDbEntity
  8
Defpoints
 62
     0
440
 16777216
100
AcDbPoint
 10
-600.0
 20
1200.0
 30
0.0
  0
ENDBLK
  5
8C6
330
8C4
100
AcDbEntity
  8
0
100
AcDbBlockEnd
  0
BLOCK
  5
8DF
330
8DE
100
AcDbEntity
  8
0
100
AcDbBlockBegin
  2
*D5
 70
     1
 10
0.0
 20
0.0
 30
0.0
  3
*D5
  1

  0
LINE
  5
9FC
330
8DE
100
AcDbEntity
  8
dist
  6
ByBlock
 62
     0
440
 16777216
370
    -2
100
AcDbLine
 10
0.0000000000000015
 20
1225.0
 30
0.0
 11
0.0000000000000148
 21
1442.0
 31
0.0
  0
LINE
  5
9FD
330
8DE
100
AcDbEntity
  8
dist
  6
ByBlock
 62
     0
440
 16777216
370
    -2
100
AcDbLine
 10
415.0
 20
1160.0
 30
0.0
 11
415.0
 21
1442.0
 31
0.0
  0
LINE
  5
9FE
330
8DE
100
AcDbEntity
  8
dist
  6
ByBlock
 62
     0
440
 16777216
370
    -2
100
AcDbLine
 10
72.00000000000001
 20
1370.0
 30
0.0
 11
343.0
 21
1370.0
 31
0.0
  0
LINE
  5
9FF
330
8DE
100
AcDbEntity
  8
dist
  6
ByBlock
 62
     0
440
 16777216
370
    -2
100
AcDbLine
 10
415.0
 20
1370.0
 30
0.0
 11
487.0
 21
1370.0
 31
0.0
  0
SOLID
  5
A00
330
8DE
100
AcDbEntity
  8
dist
 62
     0
440
 16777216
100
AcDbTrace
 10
72.00000000000001
 20
1382.0
 30
0.0
 11
72.00000000000001
 21
1358.0
 31
0.0
 12
0.0000000000000104
 22
1370.0
 32
0.0
 13
0.0000000000000104
 23
1370.0
 33
0.0
  0
SOLID
  5
A01
330
8DE
100
AcDbEntity
  8
dist
 62
     0
440
 16777216
100
AcDbTrace
 10
343.0
 20
1382.0
 30
0.0
 11
343.0
 21
1358.0
 31
0.0
 12
415.0
 22
1370.0
 32
0.0
 13
415.0
 23
1370.0
 33
0.0
  0
MTEXT
  5
A02
330
8DE
100
AcDbEntity
  8
dist
 62
     0
440
 16777216
100
AcDbMText
 10
737.8641975308641
 20
1370.0
 30
0.0
 40
72.0
 41
0.0
 71
     5
 72
     1
  1
\A1;415 [16.3]
 73
     1
 44
1.0
  0
POINT
  5
A03
330
8DE
100
AcDbEntity
  8
Defpoints
 62
     0
440
 16777216
100
AcDbPoint
 10
0.0
 20
1200.0
 30
0.0
  0
POINT
  5
A04
330
8DE
100
AcDbEntity
  8
Defpoints
 62
     0
440
 16777216
100
AcDbPoint
 10
415.0
 20
1135.0
 30
0.0
  0
POINT
  5
A05
330
8DE
100
AcDbEntity
  8
Defpoints
 62
     0
440
 16777216
100
AcDbPoint
 10
415.0
 20
1370.0
 30
0.0
  0
ENDBLK
  5
8E0
330
8DE
100
AcDbEntity
  8
0
100
AcDbBlockEnd
  0
BLOCK
  5
903
330
902
100
AcDbEntity
  8
0
100
AcDbBlockBegin
  2
*D6
 70
     1
 10
0.0
 20
0.0
 30
0.0
  3
*D6
  1

  0
LINE
  5
9E8
330
902
100
AcDbEntity
  8
dist
  6
ByBlock
 62
     0
440
 16777216
370
    -2
100
AcDbLine
 10
1005.0
 20
-0.0000000000000071
 30
0.0
 11
1352.0
 21
-0.0000000000001054
 31
0.0
  0
LINE
  5
9E9
330
902
100
AcDbEntity
  8
dist
  6
ByBlock
 62
     0
440
 16777216
370
    -2
100
AcDbLine
 10
940.0
 20
474.2
 30
0.0
 11
1352.0
 21
474.1999999999999
 31
0.0
  0
LINE
  5
9EA
330
902
100
AcDbEntity
  8
dist
  6
ByBlock
 62
     0
440
 16777216
370
    -2
100
AcDbLine
 10
1280.0
 20
71.99999999999992
 30
0.0
 11
1280.0
 21
154.4827160493827
 31
0.0
  0
LINE
  5
9EB
330
902
100
AcDbEntity
  8
dist
  6
ByBlock
 62
     0
440
 16777216
370
    -2
100
AcDbLine
 10
1280.0
 20
402.2
 30
0.0
 11
1280.0
 21
319.7172839506173
 31
0.0
  0
SOLID
  5
9EC
330
902
100
AcDbEntity
  8
dist
 62
     0
440
 16777216
100
AcDbTrace
 10
1268.0
 20
71.99999999999992
 30
0.0
 11
1292.0
 21
71.99999999999992
 31
0.0
 12
1280.0
 22
-0.000000000000085
 32
0.0
 13
1280.0
 23
-0.000000000000085
 33
0.0
  0
SOLID
  5
9ED
330
902
100
AcDbEntity
  8
dist
 62
     0
440
 16777216
100
AcDbTrace
 10
1268.0
 20
402.2
 30
0.0
 11
1292.0
 21
402.2
 31
0.0
 12
1280.0
 22
474.1999999999999
 32
0.0
 13
1280.0
 23
474.1999999999999
 33
0.0
  0
MTEXT
  5
9EE
330
902
100
AcDbEntity
  8
dist
 62
     0
440
 16777216
100
AcDbMText
 10
1280.0
 20
237.1000000000002
 30
0.0
 40
72.0
 41
0.0
 71
     5
 72
     1
  1
\A1;474 [18.7]
 73
     1
 44
1.0
  0
POINT
  5
9EF
330
902
100
AcDbEntity
  8
Defpoints
 62
     0
440
 16777216
100
AcDbPoint
 10
980.0
 20
0.0
 30
0.0
  0
POINT
  5
9F0
330
902
100
AcDbEntity
  8
Defpoints
 62
     0
440
 16777216
100
AcDbPoint
 10
915.0
 20
474.2
 30
0.0
  0
POINT
  5
9F1
330
902
100
AcDbEntity
  8
Defpoints
 62
     0
440
 16777216
100
AcDbPoint
 10
1280.0
 20
474.1999999999999
 30
0.0
  0
ENDBLK
  5
904
330
902
100
AcDbEntity
  8
0
100
AcDbBlockEnd
  0
ENDSEC
  0
SECTION
  2
ENTITIES
  0
LWPOLYLINE
  5
5F
102
{ACAD_REACTORS
330
8B8
102
}
330
1F
100
AcDbEntity
  8
ohmic
100
AcDbPolyline
 90
        4
 70
     1
 43
0.0
 10
65.0
 20
647.4
 10
65.0
 20
710.4
 10
137.2
 20
710.4
 10
137.2
 20
647.4
  0
LWPOLYLINE
  5
61
330
1F
100
AcDbEntity
  8
ohmic
100
AcDbPolyline
 90
       27
 70
     1
 43
0.0
 10
149.8
 20
598.3000000000002
 10
150.7
 20
592.3999999999999
 10
149.8
 20
586.5
 10
147.1
 20
581.0999999999999
 10
142.8
 20
576.9
 10
137.5
 20
574.2
 10
132.5
 20
573.3999999999999
 10
125.0
 20
573.3999999999999
 10
103.0
 20
538.2
 10
103.0
 20
531.3000000000001
 10
102.2
 20
526.3000000000001
 10
99.50000000000001
 20
521.0
 10
95.29999999999999
 20
516.7
 10
89.9
 20
514.0
 10
84.01100000000001
 20
513.1
 10
78.10000000000002
 20
514.0
 10
72.7
 20
516.7
 10
68.5
 20
521.0
 10
65.8
 20
526.3000000000001
 10
65.0
 20
531.3000000000001
 10
65.0
 20
611.5
 10
124.0
 20
611.5
 10
124.0
 20
611.3999999999999
 10
132.5
 20
611.3999999999999
 10
137.5
 20
610.6
 10
142.8
 20
607.8999999999999
 10
147.1
 20
603.7
  0
LWPOLYLINE
  5
62
330
1F
100
AcDbEntity
  8
ohmic
100
AcDbPolyline
 90
       27
 70
     1
 43
0.0
 10
149.8
 20
771.3000000000001
 10
150.7
 20
765.3999999999999
 10
149.8
 20
759.4999999999999
 10
147.1
 20
754.1
 10
142.8
 20
749.8999999999999
 10
137.5
 20
747.2
 10
132.5
 20
746.3999999999999
 10
125.5
 20
746.3999999999999
 10
125.5
 20
746.3000000000001
 10
65.0
 20
746.3000000000001
 10
65.0
 20
826.5
 10
65.8
 20
831.4999999999999
 10
68.5
 20
836.8
 10
72.7
 20
841.0999999999999
 10
78.10000000000002
 20
843.7999999999998
 10
84.0
 20
844.7
 10
89.9
 20
843.7999999999998
 10
95.29999999999999
 20
841.0999999999999
 10
99.50000000000001
 20
836.8
 10
102.2
 20
831.4999999999999
 10
103.0
 20
826.5
 10
103.0
 20
819.5999999999999
 10
125.5
 20
784.4
 10
132.5
 20
784.4
 10
137.5
 20
783.6
 10
142.8
 20
780.9
 10
147.1
 20
776.7
  0
LWPOLYLINE
  5
65
330
1F
100
AcDbEntity
  8
ohmic
100
AcDbPolyline
 90
        8
 70
     1
 43
0.0
 10
238.5
 20
1004.0
 10
238.5
 20
1035.0
 10
215.0
 20
1035.0
 10
215.0
 20
1135.0
 10
315.0
 20
1135.0
 10
315.0
 20
1035.0
 10
291.5
 20
1035.0
 10
291.5
 20
1004.0
  0
LWPOLYLINE
  5
68
102
{ACAD_REACTORS
330
8F6
102
}
330
1F
100
AcDbEntity
  8
ohmic
100
AcDbPolyline
 90
        4
 70
     1
 43
0.0
 10
365.0
 20
1035.0
 10
365.0
 20
1135.0
 10
465.0
 20
1135.0
 10
465.0
 20
1035.0
  0
LWPOLYLINE
  5
75
330
1F
100
AcDbEntity
  8
ohmic
100
AcDbPolyline
 90
        8
 70
     1
 43
0.0
 10
538.4999999999999
 20
1004.0
 10
538.4999999999999
 20
1035.0
 10
515.0
 20
1035.0
 10
515.0
 20
1135.0
 10
615.0
 20
1135.0
 10
615.0
 20
1035.0
 10
591.5
 20
1035.0
 10
591.5
 20
1004.0
  0
LWPOLYLINE
  5
76
330
1F
100
AcDbEntity
  8
ohmic
100
AcDbPolyline
 90
        8
 70
     1
 43
0.0
 10
575.1
 20
165.0
 10
598.6
 20
165.0
 10
598.6
 20
65.0
 10
498.6
 20
65.0
 10
498.6
 20
165.0
 10
522.1
 20
165.0
 10
522.1
 20
196.0
 10
575.1
 20
196.0
  0
LWPOLYLINE
  5
79
330
1F
100
AcDbEntity
  8
ohmic
100
AcDbPolyline
 90
        4
 70
     1
 43
0.0
 10
648.6
 20
65.0
 10
648.6
 20
165.0
 10
748.6
 20
165.0
 10
748.6
 20
65.0
  0
LWPOLYLINE
  5
7A
330
1F
100
AcDbEntity
  8
ohmic
100
AcDbPolyline
 90
        4
 70
     1
 43
0.0
 10
665.0
 20
1035.0
 10
665.0
 20
1135.0
 10
765.0
 20
1135.0
 10
765.0
 20
1035.0
  0
LWPOLYLINE
  5
7B
330
1F
100
AcDbEntity
  8
ohmic
100
AcDbPolyline
 90
        8
 70
     1
 43
0.0
 10
838.4999999999999
 20
1004.0
 10
838.4999999999999
 20
1035.0
 10
815.0
 20
1035.0
 10
815.0
 20
1135.0
 10
915.0
 20
1135.0
 10
915.0
 20
1035.0
 10
891.5
 20
1035.0
 10
891.5
 20
1004.0
  0
LWPOLYLINE
  5
7C
102
{ACAD_REACTORS
330
91A
102
}
330
1F
100
AcDbEntity
  8
ohmic
100
AcDbPolyline
 90
        4
 70
     1
 43
0.0
 10
842.8000000000002
 20
442.7
 10
842.8000000000002
 20
505.7
 10
915.0
 20
505.7
 10
915.0
 20
442.7
  0
LWPOLYLINE
  5
7D
330
1F
100
AcDbEntity
  8
ohmic
100
AcDbPolyline
 90
       27
 70
     1
 43
0.0
 10
856.0
 20
541.6
 10
856.0
 20
541.7
 10
847.4999999999999
 20
541.7
 10
842.5
 20
542.4999999999999
 10
837.1999999999999
 20
545.2
 10
832.9
 20
549.3999999999999
 10
830.2000000000001
 20
554.8000000000001
 10
829.3000000000002
 20
560.7
 10
830.2000000000001
 20
566.6
 10
832.9
 20
572.0
 10
837.1999999999999
 20
576.2
 10
842.5
 20
578.8999999999999
 10
847.4999999999999
 20
579.7
 10
855.0
 20
579.7
 10
877.0
 20
614.9
 10
877.0
 20
621.8000000000001
 10
877.8000000000002
 20
626.8000000000001
 10
880.4999999999999
 20
632.1
 10
884.7000000000001
 20
636.3999999999999
 10
890.0999999999999
 20
639.1
 10
895.9889999999999
 20
640.0
 10
901.9
 20
639.1
 10
907.3
 20
636.3999999999999
 10
911.5
 20
632.1
 10
914.2000000000001
 20
626.8000000000001
 10
915.0
 20
621.8000000000001
 10
915.0
 20
541.6
  0
LWPOLYLINE
  5
7E
330
1F
100
AcDbEntity
  8
ohmic
100
AcDbPolyline
 90
       27
 70
     1
 43
0.0
 10
877.0
 20
326.6
 10
877.0
 20
333.5
 10
854.4999999999999
 20
368.7
 10
847.4999999999999
 20
368.7
 10
842.5
 20
369.5
 10
837.1999999999999
 20
372.2
 10
832.9
 20
376.4
 10
830.2000000000001
 20
381.8
 10
829.3000000000002
 20
387.7
 10
830.2000000000001
 20
393.6
 10
832.9
 20
399.0
 10
837.1999999999999
 20
403.2
 10
842.5
 20
405.9
 10
847.4999999999999
 20
406.7
 10
854.4999999999999
 20
406.7
 10
854.4999999999999
 20
406.8
 10
915.0
 20
406.8
 10
915.0
 20
326.6
 10
914.2000000000001
 20
321.6
 10
911.5
 20
316.3
 10
907.3
 20
312.0
 10
901.9
 20
309.3
 10
896.0
 20
308.4
 10
890.0999999999999
 20
309.3
 10
884.7000000000001
 20
312.0
 10
880.4999999999999
 20
316.3
 10
877.8000000000002
 20
321.6
  0
LWPOLYLINE
  5
82
330
1F
100
AcDbEntity
  8
met1
100
AcDbPolyline
 90
       25
 70
     1
 43
0.0
 10
66.5
 20
531.4
 10
66.5
 20
609.9
 10
132.4
 20
609.9
 10
137.0
 20
609.2
 10
141.9
 20
606.7
 10
145.8
 20
602.8000000000002
 10
148.3
 20
597.8000000000001
 10
149.2
 20
592.3999999999999
 10
148.4
 20
587.0
 10
145.8
 20
582.0
 10
141.9
 20
578.1
 10
137.0
 20
575.6
 10
132.4
 20
574.8999999999999
 10
124.0
 20
574.8999999999999
 10
101.5
 20
539.7
 10
101.5
 20
531.4
 10
100.8
 20
526.8000000000001
 10
98.3
 20
521.9
 10
94.40000000000001
 20
518.0
 10
89.40000000000001
 20
515.5
 10
84.0
 20
514.5999999999999
 10
78.60000000000002
 20
515.3999999999999
 10
73.60000000000002
 20
518.0
 10
69.7
 20
521.9
 10
67.2
 20
526.8000000000001
  0
LWPOLYLINE
  5
8D
330
1F
100
AcDbEntity
  8
met1
100
AcDbPolyline
 90
       25
 70
     1
 43
0.0
 10
148.4
 20
770.8000000000001
 10
149.2
 20
765.3999999999999
 10
148.3
 20
760.0
 10
145.8
 20
755.0
 10
141.9
 20
751.1
 10
137.0
 20
748.6
 10
132.4
 20
747.9
 10
66.5
 20
747.9
 10
66.5
 20
826.3999999999999
 10
67.2
 20
831.0
 10
69.7
 20
835.8999999999999
 10
73.60000000000002
 20
839.7999999999999
 10
78.60000000000002
 20
842.3999999999999
 10
84.0
 20
843.2
 10
89.40000000000001
 20
842.3
 10
94.40000000000001
 20
839.7999999999999
 10
98.3
 20
835.8999999999999
 10
100.8
 20
831.0
 10
101.5
 20
826.3999999999999
 10
101.5
 20
818.1
 10
124.0
 20
782.8999999999999
 10
132.4
 20
782.8999999999999
 10
137.0
 20
782.2
 10
141.9
 20
779.7
 10
145.8
 20
775.8000000000001
  0
LWPOLYLINE
  5
91
330
1F
100
AcDbEntity
  8
met1
100
AcDbPolyline
 90
        8
 70
     1
 43
0.0
 10
240.0
 20
1005.5
 10
240.0
 20
1036.5
 10
216.5
 20
1036.5
 10
216.5
 20
1133.5
 10
313.5
 20
1133.5
 10
313.5
 20
1036.5
 10
290.0
 20
1036.5
 10
290.0
 20
1005.5
  0
LWPOLYLINE
  5
A2
330
1F
100
AcDbEntity
  8
met1
100
AcDbPolyline
 90
        8
 70
     1
 43
0.0
 10
540.0
 20
1005.5
 10
540.0
 20
1036.5
 10
516.5
 20
1036.5
 10
516.5
 20
1133.5
 10
613.4999999999999
 20
1133.5
 10
613.4999999999999
 20
1036.5
 10
590.0
 20
1036.5
 10
590.0
 20
1005.5
  0
LWPOLYLINE
  5
A5
330
1F
100
AcDbEntity
  8
met1
100
AcDbPolyline
 90
        8
 70
     1
 43
0.0
 10
573.6
 20
163.5
 10
597.1
 20
163.5
 10
597.1
 20
66.5
 10
500.1
 20
66.5
 10
500.1
 20
163.5
 10
523.6
 20
163.5
 10
523.6
 20
194.5
 10
573.6
 20
194.5
  0
LWPOLYLINE
  5
AA
330
1F
100
AcDbEntity
  8
met1
100
AcDbPolyline
 90
        4
 70
     1
 43
0.0
 10
650.1
 20
66.5
 10
650.1
 20
163.5
 10
747.1
 20
163.5
 10
747.1
 20
66.5
  0
LWPOLYLINE
  5
AE
330
1F
100
AcDbEntity
  8
met1
100
AcDbPolyline
 90
      277
 70
     1
 43
0.0
 10
765.3999999999999
 20
784.1
 10
767.0
 20
785.2999999999999
 10
768.6
 20
786.8999999999999
 10
770.2
 20
788.1
 10
771.3999999999999
 20
789.2999999999999
 10
772.2
 20
790.8999999999999
 10
773.0
 20
792.1
 10
774.6
 20
795.2999999999999
 10
775.0
 20
796.4999999999999
 10
775.0
 20
798.1
 10
775.3999999999999
 20
800.1000000000001
 10
775.3999999999999
 20
801.7000000000001
 10
775.0
 20
804.4999999999999
 10
773.8000000000002
 20
808.0999999999999
 10
771.8000000000001
 20
811.2999999999999
 10
769.0
 20
814.4999999999999
 10
765.8000000000002
 20
817.3
 10
761.8000000000002
 20
819.7
 10
761.0
 20
820.5
 10
759.0
 20
818.1
 10
756.6
 20
814.4999999999999
 10
754.2
 20
810.5
 10
752.2
 20
806.4999999999999
 10
750.6
 20
802.5
 10
749.3999999999999
 20
798.5
 10
748.6
 20
794.5
 10
748.2
 20
790.5
 10
748.6
 20
786.8999999999999
 10
749.0
 20
783.7
 10
750.2
 20
780.5
 10
750.6
 20
780.1
 10
751.4
 20
780.1
 10
757.0
 20
780.9
 10
759.8000000000001
 20
781.7000000000001
 10
762.2
 20
782.5
 10
759.4
 20
781.2999999999999
 10
756.2
 20
780.5
 10
753.0
 20
779.3
 10
751.0
 20
778.8999999999999
 10
751.4
 20
778.1
 10
753.8000000000002
 20
775.7
 10
755.4
 20
774.5
 10
757.0
 20
773.7
 10
761.0
 20
772.1
 10
765.0
 20
771.3
 10
762.6
 20
771.3
 10
759.8000000000001
 20
771.7
 10
755.0
 20
773.2999999999999
 10
752.6
 20
774.5
 10
750.2
 20
775.3
 10
748.2
 20
776.9
 10
746.6
 20
778.1
 10
745.8000000000001
 20
777.7000000000001
 10
733.8000000000001
 20
776.5
 10
725.8000000000001
 20
776.5
 10
721.8000000000001
 20
776.9
 10
717.3999999999999
 20
777.2999999999999
 10
711.0
 20
778.5
 10
703.8000000000002
 20
780.5
 10
697.0
 20
782.8999999999999
 10
690.6
 20
785.2999999999999
 10
685.0
 20
788.4999999999999
 10
679.8000000000001
 20
792.1
 10
675.0
 20
795.7
 10
671.3999999999999
 20
799.7
 10
668.2
 20
804.1
 10
666.2
 20
808.5
 10
664.6
 20
812.8999999999999
 10
664.2
 20
817.3
 10
664.6
 20
821.2999999999999
 10
665.3999999999999
 20
823.7
 10
666.2
 20
825.7000000000001
 10
667.3999999999999
 20
828.1
 10
669.0
 20
830.1
 10
673.0
 20
834.1000000000001
 10
675.3999999999999
 20
835.7000000000001
 10
677.8000000000002
 20
837.7
 10
680.6
 20
839.2999999999998
 10
686.2
 20
841.6999999999999
 10
689.4
 20
842.9
 10
684.6
 20
840.4999999999999
 10
683.0
 20
839.2999999999998
 10
681.0
 20
838.1
 10
679.3999999999999
 20
836.8999999999999
 10
675.8000000000001
 20
832.0999999999999
 10
675.0
 20
830.4999999999999
 10
674.2
 20
828.5
 10
673.3999999999999
 20
824.5
 10
673.0
 20
820.8999999999999
 10
673.3999999999999
 20
816.5
 10
674.6
 20
811.7
 10
677.0
 20
807.6999999999999
 10
680.2
 20
803.2999999999999
 10
683.8000000000001
 20
799.2999999999999
 10
688.6
 20
795.7
 10
693.8000000000002
 20
792.1
 10
699.3999999999999
 20
788.9
 10
705.8000000000001
 20
786.1
 10
712.6
 20
783.7
 10
719.8000000000002
 20
782.1
 10
726.2
 20
780.9
 10
729.3999999999999
 20
780.5
 10
733.0
 20
780.1
 10
736.2
 20
779.7
 10
744.6
 20
779.7
 10
743.8000000000002
 20
780.1
 10
739.8000000000002
 20
784.1
 10
738.2
 20
786.5
 10
735.4
 20
790.1
 10
733.0
 20
794.8999999999999
 10
732.6
 20
796.1
 10
732.2
 20
796.4999999999999
 10
731.4
 20
797.7
 10
730.2
 20
798.8999999999999
 10
729.3999999999999
 20
800.1000000000001
 10
727.0
 20
801.7000000000001
 10
725.8000000000001
 20
802.8999999999999
 10
724.6
 20
803.2999999999999
 10
722.2
 20
804.8999999999999
 10
721.0
 20
805.2999999999999
 10
719.3999999999999
 20
805.7
 10
717.8000000000001
 20
805.7
 10
716.2
 20
806.0999999999999
 10
715.0
 20
806.0999999999999
 10
713.4
 20
806.4999999999999
 10
711.8000000000002
 20
806.0999999999999
 10
710.2
 20
806.0999999999999
 10
708.6
 20
805.7
 10
707.3999999999999
 20
805.2999999999999
 10
704.2
 20
804.4999999999999
 10
703.0
 20
803.7
 10
701.4
 20
802.8999999999999
 10
699.8000000000001
 20
801.7000000000001
 10
698.6
 20
800.9
 10
701.4
 20
803.7
 10
703.3999999999999
 20
804.8999999999999
 10
705.0
 20
805.7
 10
707.0
 20
806.8999999999999
 10
708.6
 20
807.6999999999999
 10
710.6
 20
808.5
 10
712.2
 20
808.9
 10
714.2
 20
809.7000000000001
 10
715.8000000000002
 20
809.7000000000001
 10
717.8000000000001
 20
810.1
 10
719.8000000000002
 20
810.1
 10
721.3999999999999
 20
809.7000000000001
 10
723.3999999999999
 20
809.7000000000001
 10
725.0
 20
808.9
 10
727.0
 20
808.5
 10
729.3999999999999
 20
807.3
 10
729.0
 20
810.5
 10
729.0
 20
816.0999999999999
 10
729.3999999999999
 20
821.2999999999999
 10
730.6
 20
826.5
 10
731.0
 20
827.2999999999999
 10
729.0
 20
827.2999999999999
 10
723.3999999999999
 20
826.9
 10
720.6
 20
826.5
 10
717.8000000000001
 20
826.5
 10
712.2
 20
825.7000000000001
 10
709.8000000000001
 20
825.3
 10
707.0
 20
824.5
 10
704.6
 20
824.0999999999999
 10
702.6
 20
823.3
 10
700.2
 20
822.4999999999999
 10
697.8000000000001
 20
821.2999999999999
 10
695.8000000000001
 20
820.5
 10
698.2
 20
822.1
 10
701.0
 20
823.3
 10
703.8000000000002
 20
824.9
 10
706.6
 20
826.1000000000001
 10
709.8000000000001
 20
826.9
 10
713.0
 20
828.1
 10
716.2
 20
828.8999999999999
 10
719.8000000000002
 20
829.7
 10
723.0
 20
830.4999999999999
 10
730.2
 20
831.2999999999998
 10
730.2
 20
832.4999999999999
 10
729.3999999999999
 20
834.1000000000001
 10
728.6
 20
835.2999999999999
 10
727.8000000000002
 20
836.8999999999999
 10
726.2
 20
839.2999999999998
 10
722.5999999999999
 20
842.9
 10
720.2
 20
844.5
 10
718.5999999999999
 20
845.2999999999999
 10
717.3999999999999
 20
845.7
 10
715.8000000000002
 20
846.4999999999999
 10
714.6
 20
846.8999999999999
 10
713.0
 20
847.2999999999998
 10
711.3999999999999
 20
847.2999999999998
 10
709.8000000000001
 20
847.7
 10
708.2
 20
847.7
 10
706.6
 20
847.2999999999998
 10
704.6
 20
847.2999999999998
 10
703.0
 20
846.8999999999999
 10
702.6
 20
846.8999999999999
 10
705.0
 20
847.7
 10
709.0
 20
848.4999999999999
 10
717.0
 20
848.4999999999999
 10
721.0
 20
847.7
 10
722.5999999999999
 20
847.2999999999998
 10
724.2
 20
846.4999999999999
 10
726.2
 20
845.7
 10
727.8000000000002
 20
844.5
 10
729.0
 20
843.7000000000001
 10
733.3999999999999
 20
839.2999999999998
 10
734.2
 20
837.7
 10
735.0
 20
836.8999999999999
 10
737.3999999999999
 20
840.4999999999999
 10
740.6
 20
844.8999999999999
 10
744.2
 20
848.0999999999999
 10
746.2
 20
849.6999999999999
 10
748.6
 20
851.2999999999999
 10
753.3999999999999
 20
853.7
 10
760.6
 20
856.0999999999999
 10
763.0
 20
856.4999999999999
 10
770.6
 20
856.4999999999999
 10
773.3999999999999
 20
856.0999999999999
 10
771.0
 20
856.0999999999999
 10
768.6
 20
855.7
 10
766.6
 20
855.7
 10
764.6
 20
854.8999999999999
 10
762.6
 20
854.4999999999999
 10
758.6
 20
852.8999999999999
 10
757.0
 20
852.1
 10
755.4
 20
850.9
 10
754.2
 20
850.1000000000001
 10
752.6
 20
848.9
 10
749.0
 20
845.2999999999999
 10
746.6
 20
842.1000000000001
 10
742.6
 20
833.3
 10
742.2
 20
831.2999999999998
 10
747.8000000000001
 20
830.8999999999999
 10
753.8000000000002
 20
829.7
 10
759.0
 20
828.1
 10
760.6
 20
827.7000000000001
 10
763.0
 20
829.2999999999999
 10
765.8000000000002
 20
830.8999999999999
 10
767.8000000000001
 20
832.0999999999999
 10
770.2
 20
832.9
 10
772.5999999999999
 20
834.1000000000001
 10
775.0
 20
834.9
 10
777.4
 20
835.2999999999999
 10
780.2
 20
836.1
 10
785.0
 20
836.8999999999999
 10
796.2
 20
836.8999999999999
 10
798.2
 20
836.5
 10
793.0
 20
836.5
 10
791.0
 20
836.1
 10
789.0
 20
836.1
 10
787.3999999999999
 20
835.7000000000001
 10
785.4
 20
834.9
 10
783.3999999999999
 20
834.5
 10
781.4
 20
833.6999999999999
 10
779.3999999999999
 20
833.3
 10
777.8000000000002
 20
832.4999999999999
 10
775.8000000000001
 20
831.2999999999998
 10
773.8000000000002
 20
830.4999999999999
 10
771.8000000000001
 20
829.2999999999999
 10
769.3999999999999
 20
827.7000000000001
 10
766.2
 20
825.3
 10
768.6
 20
824.0999999999999
 10
772.2
 20
821.7
 10
775.8000000000001
 20
818.9
 10
778.2
 20
815.7
 10
780.2
 20
812.5
 10
781.4
 20
808.9
 10
781.8000000000002
 20
805.7
 10
781.8000000000002
 20
803.7
 10
781.4
 20
801.7000000000001
 10
779.8000000000001
 20
797.7
 10
778.6
 20
796.1
 10
775.3999999999999
 20
792.1
 10
773.8000000000002
 20
790.5
 10
771.8000000000001
 20
788.9
 10
769.8000000000002
 20
786.8999999999999
 10
767.8000000000001
 20
785.7
  0
LWPOLYLINE
  5
AF
330
1F
100
AcDbEntity
  8
met1
100
AcDbPolyline
 90
       25
 70
     1
 43
0.0
 10
830.8000000000001
 20
560.7
 10
831.6
 20
566.1
 10
834.2
 20
571.1
 10
838.1
 20
575.0
 10
843.0
 20
577.5
 10
847.6
 20
578.2
 10
856.0
 20
578.2
 10
878.5
 20
613.4
 10
878.5
 20
621.7
 10
879.1999999999999
 20
626.3000000000001
 10
881.7
 20
631.2
 10
885.5999999999999
 20
635.0999999999999
 10
890.6
 20
637.6
 10
896.0
 20
638.4999999999999
 10
901.3999999999999
 20
637.7
 10
906.4
 20
635.0999999999999
 10
910.2999999999999
 20
631.2
 10
912.8
 20
626.3000000000001
 10
913.4999999999999
 20
621.7
 10
913.4999999999999
 20
543.2
 10
847.6
 20
543.2
 10
843.0
 20
543.9
 10
838.1
 20
546.3999999999999
 10
834.2
 20
550.3000000000001
 10
831.7
 20
555.3000000000001
  0
LWPOLYLINE
  5
B0
330
1F
100
AcDbEntity
  8
met1
100
AcDbPolyline
 90
       73
 70
     1
 43
0.0
 10
832.6
 20
811.7
 10
833.0
 20
808.5
 10
833.0
 20
802.8999999999999
 10
831.0
 20
796.4999999999999
 10
827.8000000000002
 20
790.5
 10
823.3999999999999
 20
784.9
 10
817.8000000000002
 20
779.7
 10
811.0
 20
774.5
 10
803.0
 20
770.5
 10
794.2000000000001
 20
766.5
 10
784.6
 20
763.3
 10
774.2
 20
760.8999999999999
 10
763.4
 20
759.2999999999999
 10
751.8000000000001
 20
758.1
 10
741.8000000000001
 20
758.1
 10
735.4
 20
758.4999999999999
 10
729.0
 20
758.8999999999999
 10
722.5999999999999
 20
759.2999999999999
 10
716.6
 20
760.5
 10
710.6
 20
761.7
 10
704.6
 20
762.8999999999999
 10
699.0
 20
764.5
 10
693.8000000000002
 20
766.1
 10
688.6
 20
768.1
 10
683.8000000000001
 20
770.1
 10
679.0
 20
772.5
 10
675.0
 20
774.5
 10
679.0
 20
772.9
 10
682.6
 20
771.3
 10
686.6
 20
769.7
 10
691.0
 20
768.1
 10
695.0
 20
766.8999999999999
 10
699.3999999999999
 20
766.1
 10
704.2
 20
764.9
 10
708.6
 20
764.1
 10
713.4
 20
763.7
 10
718.5999999999999
 20
763.3
 10
723.8000000000002
 20
762.8999999999999
 10
739.0
 20
762.8999999999999
 10
750.6
 20
764.1
 10
761.3999999999999
 20
765.7
 10
771.8000000000001
 20
768.1
 10
781.4
 20
771.3
 10
790.2000000000001
 20
775.3
 10
798.2
 20
779.3
 10
805.0
 20
784.1
 10
810.5999999999999
 20
789.7
 10
815.0
 20
795.2999999999999
 10
818.2
 20
801.2999999999999
 10
820.1999999999999
 20
807.6999999999999
 10
820.5999999999999
 20
812.8999999999999
 10
820.1999999999999
 20
816.0999999999999
 10
819.8000000000002
 20
818.9
 10
819.3999999999999
 20
821.7
 10
818.5999999999999
 20
824.5
 10
817.3999999999999
 20
827.2999999999999
 10
815.8000000000001
 20
830.1
 10
814.2000000000001
 20
832.4999999999999
 10
812.1999999999999
 20
834.9
 10
810.2
 20
837.2999999999999
 10
807.3999999999999
 20
839.7
 10
804.6000000000001
 20
841.6999999999999
 10
801.3999999999999
 20
844.1
 10
805.4
 20
841.6999999999999
 10
809.8000000000002
 20
839.2999999999998
 10
813.4
 20
836.8999999999999
 10
817.0
 20
834.1000000000001
 10
820.5999999999999
 20
831.2999999999998
 10
823.3999999999999
 20
828.1
 10
826.2
 20
824.9
 10
828.5999999999999
 20
822.1
 10
830.2000000000001
 20
818.5
 10
831.8000000000001
 20
815.3
  0
LWPOLYLINE
  5
B1
330
1F
100
AcDbEntity
  8
met1
100
AcDbPolyline
 90
        8
 70
     1
 43
0.0
 10
840.0
 20
1005.5
 10
840.0
 20
1036.5
 10
816.5
 20
1036.5
 10
816.5
 20
1133.5
 10
913.4999999999999
 20
1133.5
 10
913.4999999999999
 20
1036.5
 10
890.0
 20
1036.5
 10
890.0
 20
1005.5
  0
LWPOLYLINE
  5
B2
330
1F
100
AcDbEntity
  8
met1
100
AcDbPolyline
 90
       25
 70
     1
 43
0.0
 10
878.5
 20
326.7
 10
878.5
 20
335.0
 10
856.0
 20
370.2
 10
847.6
 20
370.2
 10
843.0
 20
370.9
 10
838.1
 20
373.4
 10
834.2
 20
377.3
 10
831.6
 20
382.3
 10
830.8000000000001
 20
387.7
 10
831.7
 20
393.1
 10
834.2
 20
398.1
 10
838.1
 20
402.0
 10
843.0
 20
404.4999999999999
 10
847.6
 20
405.1999999999999
 10
913.4999999999999
 20
405.1999999999999
 10
913.4999999999999
 20
326.7
 10
912.8
 20
322.1
 10
910.2999999999999
 20
317.2
 10
906.4
 20
313.3
 10
901.3999999999999
 20
310.7
 10
896.0
 20
309.9
 10
890.6
 20
310.8
 10
885.5999999999999
 20
313.3
 10
881.7
 20
317.2
 10
879.1999999999999
 20
322.1
  0
LWPOLYLINE
  5
B5
330
1F
100
AcDbEntity
  8
via2
100
AcDbPolyline
 90
       25
 70
     1
 43
0.0
 10
68.5
 20
531.6
 10
68.5
 20
607.8999999999999
 10
132.2
 20
607.8999999999999
 10
136.4
 20
607.2
 10
140.8
 20
605.0
 10
144.2
 20
601.6
 10
146.4
 20
597.2
 10
147.2
 20
592.3999999999999
 10
146.4
 20
587.6
 10
144.2
 20
583.2
 10
140.8
 20
579.8000000000001
 10
136.4
 20
577.6
 10
132.2
 20
576.9
 10
122.0
 20
576.9
 10
99.50000000000001
 20
541.7
 10
99.50000000000001
 20
531.6
 10
98.8
 20
527.4
 10
96.6
 20
523.0
 10
93.2
 20
519.6
 10
88.8
 20
517.3999999999999
 10
84.0
 20
516.6
 10
79.2
 20
517.3999999999999
 10
74.8
 20
519.6
 10
71.4
 20
523.0
 10
69.2
 20
527.4
  0
LWPOLYLINE
  5
B8
330
1F
100
AcDbEntity
  8
via2
100
AcDbPolyline
 90
       25
 70
     1
 43
0.0
 10
146.4
 20
770.2
 10
147.2
 20
765.3999999999999
 10
146.4
 20
760.6
 10
144.2
 20
756.2
 10
140.8
 20
752.8000000000002
 10
136.4
 20
750.6
 10
132.2
 20
749.8999999999999
 10
68.5
 20
749.8999999999999
 10
68.5
 20
826.2
 10
69.2
 20
830.4
 10
71.4
 20
834.7999999999998
 10
74.8
 20
838.2000000000001
 10
79.2
 20
840.3999999999999
 10
84.0
 20
841.2
 10
88.8
 20
840.3999999999999
 10
93.2
 20
838.2000000000001
 10
96.6
 20
834.7999999999998
 10
98.8
 20
830.4
 10
99.50000000000001
 20
826.2
 10
99.50000000000001
 20
816.0999999999999
 10
122.0
 20
780.9
 10
132.2
 20
780.9
 10
136.4
 20
780.2
 10
140.8
 20
778.0
 10
144.2
 20
774.6
  0
LWPOLYLINE
  5
C2
330
1F
100
AcDbEntity
  8
via2
100
AcDbPolyline
 90
        8
 70
     1
 43
0.0
 10
242.0
 20
1007.5
 10
242.0
 20
1038.5
 10
218.5
 20
1038.5
 10
218.5
 20
1131.5
 10
311.5
 20
1131.5
 10
311.5
 20
1038.5
 10
288.0
 20
1038.5
 10
288.0
 20
1007.5
  0
LWPOLYLINE
  5
CC
330
1F
100
AcDbEntity
  8
via2
100
AcDbPolyline
 90
        8
 70
     1
 43
0.0
 10
571.6
 20
161.5
 10
595.1
 20
161.5
 10
595.1
 20
68.5
 10
502.0999999999999
 20
68.5
 10
502.0999999999999
 20
161.5
 10
525.6
 20
161.5
 10
525.6
 20
192.5
 10
571.6
 20
192.5
  0
LWPOLYLINE
  5
CF
330
1F
100
AcDbEntity
  8
via2
100
AcDbPolyline
 90
        4
 70
     1
 43
0.0
 10
652.1
 20
68.5
 10
652.1
 20
161.5
 10
745.1
 20
161.5
 10
745.1
 20
68.5
  0
LWPOLYLINE
  5
DD
330
1F
100
AcDbEntity
  8
via2
100
AcDbPolyline
 90
        8
 70
     1
 43
0.0
 10
542.0
 20
1007.5
 10
542.0
 20
1038.5
 10
518.5
 20
1038.5
 10
518.5
 20
1131.5
 10
611.5
 20
1131.5
 10
611.5
 20
1038.5
 10
588.0
 20
1038.5
 10
588.0
 20
1007.5
  0
LWPOLYLINE
  5
E6
330
1F
100
AcDbEntity
  8
via2
100
AcDbPolyline
 90
       25
 70
     1
 43
0.0
 10
880.4999999999999
 20
326.9
 10
880.4999999999999
 20
337.0
 10
858.0
 20
372.2
 10
847.8000000000001
 20
372.2
 10
843.5999999999999
 20
372.9
 10
839.2000000000001
 20
375.1
 10
835.8000000000002
 20
378.5
 10
833.6
 20
382.9
 10
832.8000000000001
 20
387.7
 10
833.6
 20
392.5
 10
835.8000000000002
 20
396.9
 10
839.2000000000001
 20
400.3
 10
843.5999999999999
 20
402.5
 10
847.8000000000001
 20
403.2
 10
911.5
 20
403.2
 10
911.5
 20
326.9
 10
910.8
 20
322.7
 10
908.6
 20
318.3
 10
905.2000000000001
 20
314.9
 10
900.7999999999999
 20
312.7
 10
896.0
 20
311.9
 10
891.2
 20
312.7
 10
886.8
 20
314.9
 10
883.3999999999999
 20
318.3
 10
881.2000000000001
 20
322.7
  0
LWPOLYLINE
  5
EA
330
1F
100
AcDbEntity
  8
via2
100
AcDbPolyline
 90
        8
 70
     1
 43
0.0
 10
842.0
 20
1007.5
 10
842.0
 20
1038.5
 10
818.5
 20
1038.5
 10
818.5
 20
1131.5
 10
911.5
 20
1131.5
 10
911.5
 20
1038.5
 10
888.0
 20
1038.5
 10
888.0
 20
1007.5
  0
LWPOLYLINE
  5
EB
330
1F
100
AcDbEntity
  8
via2
100
AcDbPolyline
 90
       25
 70
     1
 43
0.0
 10
910.8
 20
625.7
 10
911.5
 20
621.4999999999999
 10
911.5
 20
545.2
 10
847.8000000000001
 20
545.2
 10
843.5999999999999
 20
545.8999999999999
 10
839.2000000000001
 20
548.1
 10
835.8000000000002
 20
551.4999999999999
 10
833.6
 20
555.9
 10
832.8000000000001
 20
560.7
 10
833.6
 20
565.5
 10
835.8000000000002
 20
569.8999999999999
 10
839.2000000000001
 20
573.3000000000002
 10
843.5999999999999
 20
575.4999999999999
 10
847.8000000000001
 20
576.2
 10
858.0
 20
576.2
 10
880.4999999999999
 20
611.3999999999999
 10
880.4999999999999
 20
621.4999999999999
 10
881.2000000000001
 20
625.7
 10
883.3999999999999
 20
630.1
 10
886.8
 20
633.4999999999999
 10
891.2
 20
635.7
 10
896.0
 20
636.5
 10
900.7999999999999
 20
635.7
 10
905.2000000000001
 20
633.4999999999999
 10
908.6
 20
630.1
  0
LWPOLYLINE
  5
F2
330
1F
100
AcDbEntity
  8
met2
100
AcDbPolyline
 90
       25
 70
     1
 43
0.0
 10
67.5
 20
531.5
 10
67.5
 20
608.8999999999999
 10
132.3
 20
608.8999999999999
 10
136.7
 20
608.2
 10
141.4
 20
605.8000000000001
 10
145.0
 20
602.2
 10
147.4
 20
597.5
 10
148.2
 20
592.3999999999999
 10
147.4
 20
587.3000000000001
 10
145.0
 20
582.6
 10
141.4
 20
579.0
 10
136.7
 20
576.6
 10
132.3
 20
575.8999999999999
 10
123.0
 20
575.8999999999999
 10
100.5
 20
540.7
 10
100.5
 20
531.5
 10
99.8
 20
527.0999999999999
 10
97.40000000000001
 20
522.4
 10
93.8
 20
518.8000000000001
 10
89.10000000000001
 20
516.3999999999999
 10
84.0
 20
515.6
 10
78.9
 20
516.3999999999999
 10
74.2
 20
518.8000000000001
 10
70.60000000000002
 20
522.4
 10
68.2
 20
527.0999999999999
  0
LWPOLYLINE
  5
F4
330
1F
100
AcDbEntity
  8
met2
100
AcDbPolyline
 90
       25
 70
     1
 43
0.0
 10
147.4
 20
770.5
 10
148.2
 20
765.3999999999999
 10
147.4
 20
760.3000000000001
 10
145.0
 20
755.6
 10
141.4
 20
752.0
 10
136.7
 20
749.6
 10
132.3
 20
748.8999999999999
 10
67.5
 20
748.8999999999999
 10
67.5
 20
826.2999999999999
 10
68.2
 20
830.7
 10
70.60000000000002
 20
835.3999999999999
 10
74.2
 20
839.0
 10
78.9
 20
841.3999999999999
 10
84.0
 20
842.2
 10
89.10000000000001
 20
841.3999999999999
 10
93.8
 20
839.0
 10
97.40000000000001
 20
835.3999999999999
 10
99.8
 20
830.7
 10
100.5
 20
826.2999999999999
 10
100.5
 20
817.1000000000001
 10
123.0
 20
781.8999999999999
 10
132.3
 20
781.8999999999999
 10
136.7
 20
781.2
 10
141.4
 20
778.8000000000002
 10
145.0
 20
775.2
  0
LWPOLYLINE
  5
FB
330
1F
100
AcDbEntity
  8
met2
100
AcDbPolyline
 90
        8
 70
     1
 43
0.0
 10
241.0
 20
1006.5
 10
241.0
 20
1037.5
 10
217.5
 20
1037.5
 10
217.5
 20
1132.5
 10
312.5
 20
1132.5
 10
312.5
 20
1037.5
 10
289.0
 20
1037.5
 10
289.0
 20
1006.5
  0
LWPOLYLINE
  5
10D
330
1F
100
AcDbEntity
  8
met2
100
AcDbPolyline
 90
        8
 70
     1
 43
0.0
 10
541.0
 20
1006.5
 10
541.0
 20
1037.5
 10
517.4999999999999
 20
1037.5
 10
517.4999999999999
 20
1132.5
 10
612.5
 20
1132.5
 10
612.5
 20
1037.5
 10
589.0
 20
1037.5
 10
589.0
 20
1006.5
  0
LWPOLYLINE
  5
110
330
1F
100
AcDbEntity
  8
met2
100
AcDbPolyline
 90
        8
 70
     1
 43
0.0
 10
572.5999999999999
 20
162.5
 10
596.1
 20
162.5
 10
596.1
 20
67.5
 10
501.1
 20
67.5
 10
501.1
 20
162.5
 10
524.6
 20
162.5
 10
524.6
 20
193.5
 10
572.5999999999999
 20
193.5
  0
LWPOLYLINE
  5
116
330
1F
100
AcDbEntity
  8
met2
100
AcDbPolyline
 90
        4
 70
     1
 43
0.0
 10
651.1
 20
67.5
 10
651.1
 20
162.5
 10
746.1
 20
162.5
 10
746.1
 20
67.5
  0
LWPOLYLINE
  5
119
330
1F
100
AcDbEntity
  8
met2
100
AcDbPolyline
 90
        8
 70
     1
 43
0.0
 10
841.0
 20
1006.5
 10
841.0
 20
1037.5
 10
817.5
 20
1037.5
 10
817.5
 20
1132.5
 10
912.5
 20
1132.5
 10
912.5
 20
1037.5
 10
889.0
 20
1037.5
 10
889.0
 20
1006.5
  0
LWPOLYLINE
  5
11A
330
1F
100
AcDbEntity
  8
met2
100
AcDbPolyline
 90
       25
 70
     1
 43
0.0
 10
879.4999999999999
 20
326.8
 10
879.4999999999999
 20
336.0
 10
857.0
 20
371.2
 10
847.7
 20
371.2
 10
843.3000000000001
 20
371.9
 10
838.6000000000001
 20
374.3
 10
835.0
 20
377.9
 10
832.6
 20
382.6
 10
831.8000000000001
 20
387.7
 10
832.6
 20
392.8
 10
835.0
 20
397.5
 10
838.6000000000001
 20
401.1
 10
843.3000000000001
 20
403.5
 10
847.7
 20
404.1999999999999
 10
912.5
 20
404.1999999999999
 10
912.5
 20
326.8
 10
911.8
 20
322.4
 10
909.3999999999999
 20
317.7
 10
905.7999999999999
 20
314.1
 10
901.1000000000001
 20
311.7
 10
896.0
 20
310.9
 10
890.9
 20
311.7
 10
886.2
 20
314.1
 10
882.6
 20
317.7
 10
880.2000000000001
 20
322.4
  0
LWPOLYLINE
  5
11B
330
1F
100
AcDbEntity
  8
met2
100
AcDbPolyline
 90
       25
 70
     1
 43
0.0
 10
911.8
 20
626.0
 10
912.5
 20
621.6
 10
912.5
 20
544.2
 10
847.7
 20
544.2
 10
843.3000000000001
 20
544.8999999999999
 10
838.6000000000001
 20
547.3000000000001
 10
835.0
 20
550.8999999999999
 10
832.6
 20
555.6
 10
831.8000000000001
 20
560.7
 10
832.6
 20
565.8000000000002
 10
835.0
 20
570.5
 10
838.6000000000001
 20
574.1
 10
843.3000000000001
 20
576.4999999999999
 10
847.7
 20
577.2
 10
857.0
 20
577.2
 10
879.4999999999999
 20
612.3999999999999
 10
879.4999999999999
 20
621.6
 10
880.2000000000001
 20
626.0
 10
882.6
 20
630.7
 10
886.2
 20
634.3000000000001
 10
890.9
 20
636.7
 10
896.0
 20
637.5
 10
901.1000000000001
 20
636.7
 10
905.7999999999999
 20
634.3000000000001
 10
909.3999999999999
 20
630.7
  0
LWPOLYLINE
  5
122
330
1F
100
AcDbEntity
  8
backvia
100
AcDbPolyline
 90
       22
 70
     1
 43
0.0
 10
76.5
 20
532.2
 10
76.5
 20
547.2
 10
76.90000000000001
 20
549.5
 10
77.9
 20
551.6
 10
79.60000000000002
 20
553.3000000000002
 10
81.69999999999999
 20
554.3000000000001
 10
84.0
 20
554.7
 10
86.3
 20
554.3000000000001
 10
88.40000000000001
 20
553.3000000000002
 10
90.09999999999999
 20
551.6
 10
91.09999999999999
 20
549.5
 10
91.5
 20
547.2
 10
91.5
 20
532.2
 10
91.09999999999999
 20
529.8999999999999
 10
90.09999999999999
 20
527.8000000000002
 10
88.40000000000001
 20
526.1
 10
86.3
 20
525.1
 10
84.0
 20
524.7
 10
81.69999999999999
 20
525.1
 10
79.60000000000002
 20
526.1
 10
77.9
 20
527.8000000000002
 10
76.90000000000001
 20
529.8999999999999
  0
LWPOLYLINE
  5
124
330
1F
100
AcDbEntity
  8
backvia
100
AcDbPolyline
 90
       22
 70
     1
 43
0.0
 10
76.5
 20
810.5999999999999
 10
76.5
 20
825.6
 10
76.90000000000001
 20
827.8999999999999
 10
77.9
 20
830.0
 10
79.60000000000002
 20
831.7
 10
81.69999999999999
 20
832.6999999999999
 10
84.0
 20
833.0999999999999
 10
86.3
 20
832.6999999999999
 10
88.40000000000001
 20
831.7
 10
90.09999999999999
 20
830.0
 10
91.09999999999999
 20
827.8999999999999
 10
91.5
 20
825.6
 10
91.5
 20
810.5999999999999
 10
91.09999999999999
 20
808.3000000000001
 10
90.09999999999999
 20
806.2000000000001
 10
88.40000000000001
 20
804.4999999999999
 10
86.3
 20
803.5
 10
84.0
 20
803.1
 10
81.69999999999999
 20
803.5
 10
79.60000000000002
 20
804.4999999999999
 10
77.9
 20
806.2000000000001
 10
76.90000000000001
 20
808.3000000000001
  0
LWPOLYLINE
  5
125
330
1F
100
AcDbEntity
  8
backvia
100
AcDbPolyline
 90
       22
 70
     1
 43
0.0
 10
138.7
 20
594.7
 10
139.1
 20
592.3999999999999
 10
138.7
 20
590.1
 10
137.7
 20
588.0
 10
136.0
 20
586.3000000000002
 10
133.9
 20
585.3000000000001
 10
131.6
 20
584.9
 10
116.6
 20
584.9
 10
114.3
 20
585.3000000000001
 10
112.2
 20
586.3000000000002
 10
110.5
 20
588.0
 10
109.5
 20
590.1
 10
109.1
 20
592.3999999999999
 10
109.5
 20
594.7
 10
110.5
 20
596.8000000000001
 10
112.2
 20
598.5
 10
114.3
 20
599.5
 10
116.6
 20
599.8999999999999
 10
131.6
 20
599.8999999999999
 10
133.9
 20
599.5
 10
136.0
 20
598.5
 10
137.7
 20
596.8000000000001
  0
LWPOLYLINE
  5
126
330
1F
100
AcDbEntity
  8
backvia
100
AcDbPolyline
 90
       22
 70
     1
 43
0.0
 10
138.7
 20
767.7
 10
139.1
 20
765.3999999999999
 10
138.7
 20
763.1
 10
137.7
 20
761.0
 10
136.0
 20
759.3000000000001
 10
133.9
 20
758.3000000000001
 10
131.6
 20
757.8999999999999
 10
116.6
 20
757.8999999999999
 10
114.3
 20
758.3000000000001
 10
112.2
 20
759.3000000000001
 10
110.5
 20
761.0
 10
109.5
 20
763.1
 10
109.1
 20
765.3999999999999
 10
109.5
 20
767.7
 10
110.5
 20
769.8000000000002
 10
112.2
 20
771.4999999999999
 10
114.3
 20
772.5
 10
116.6
 20
772.9
 10
131.6
 20
772.9
 10
133.9
 20
772.5
 10
136.0
 20
771.4999999999999
 10
137.7
 20
769.8000000000002
  0
LWPOLYLINE
  5
129
330
1F
100
AcDbEntity
  8
backvia
100
AcDbPolyline
 90
       22
 70
     1
 43
0.0
 10
279.633
 20
1025.318
 10
280.0
 20
1023.0
 10
279.633
 20
1020.682
 10
278.568
 20
1018.592
 10
276.908
 20
1016.932
 10
274.818
 20
1015.867
 10
272.5
 20
1015.5
 10
257.5
 20
1015.5
 10
255.182
 20
1015.867
 10
253.092
 20
1016.932
 10
251.432
 20
1018.592
 10
250.367
 20
1020.682
 10
250.0
 20
1023.0
 10
250.367
 20
1025.318
 10
251.432
 20
1027.408
 10
253.092
 20
1029.068
 10
255.182
 20
1030.133
 10
257.5
 20
1030.5
 10
272.5
 20
1030.5
 10
274.818
 20
1030.133
 10
276.908
 20
1029.068
 10
278.568
 20
1027.408
  0
LWPOLYLINE
  5
130
330
1F
100
AcDbEntity
  8
backvia
100
AcDbPolyline
 90
       22
 70
     1
 43
0.0
 10
563.2330000000002
 20
179.3179999999999
 10
563.6
 20
177.0
 10
563.2330000000002
 20
174.682
 10
562.168
 20
172.592
 10
560.508
 20
170.932
 10
558.4179999999999
 20
169.867
 10
556.0999999999999
 20
169.5
 10
541.1
 20
169.5
 10
538.7819999999999
 20
169.867
 10
536.692
 20
170.932
 10
535.0319999999999
 20
172.592
 10
533.9669999999999
 20
174.682
 10
533.6
 20
177.0
 10
533.9669999999999
 20
179.3179999999999
 10
535.0319999999999
 20
181.408
 10
536.692
 20
183.068
 10
538.7819999999999
 20
184.133
 10
541.1
 20
184.5
 10
556.0999999999999
 20
184.5
 10
558.4179999999999
 20
184.133
 10
560.508
 20
183.068
 10
562.168
 20
181.408
  0
LWPOLYLINE
  5
131
330
1F
100
AcDbEntity
  8
backvia
100
AcDbPolyline
 90
       22
 70
     1
 43
0.0
 10
579.633
 20
1025.318
 10
580.0
 20
1023.0
 10
579.633
 20
1020.682
 10
578.568
 20
1018.592
 10
576.908
 20
1016.932
 10
574.8179999999999
 20
1015.867
 10
572.5
 20
1015.5
 10
557.5
 20
1015.5
 10
555.182
 20
1015.867
 10
553.092
 20
1016.932
 10
551.432
 20
1018.592
 10
550.3669999999999
 20
1020.682
 10
550.0
 20
1023.0
 10
550.3669999999999
 20
1025.318
 10
551.432
 20
1027.408
 10
553.092
 20
1029.068
 10
555.182
 20
1030.133
 10
557.5
 20
1030.5
 10
572.5
 20
1030.5
 10
574.8179999999999
 20
1030.133
 10
576.908
 20
1029.068
 10
578.568
 20
1027.408
  0
LWPOLYLINE
  5
134
330
1F
100
AcDbEntity
  8
backvia
100
AcDbPolyline
 90
       22
 70
     1
 43
0.0
 10
870.5
 20
390.0
 10
870.8999999999999
 20
387.7
 10
870.5
 20
385.4
 10
869.5
 20
383.3
 10
867.8000000000002
 20
381.6
 10
865.7
 20
380.6
 10
863.4
 20
380.2
 10
848.3999999999999
 20
380.2
 10
846.1
 20
380.6
 10
844.0
 20
381.6
 10
842.3000000000001
 20
383.3
 10
841.3000000000002
 20
385.4
 10
840.9
 20
387.7
 10
841.3000000000002
 20
390.0
 10
842.3000000000001
 20
392.1
 10
844.0
 20
393.8
 10
846.1
 20
394.8
 10
848.3999999999999
 20
395.2
 10
863.4
 20
395.2
 10
865.7
 20
394.8
 10
867.8000000000002
 20
393.8
 10
869.5
 20
392.1
  0
LWPOLYLINE
  5
135
330
1F
100
AcDbEntity
  8
backvia
100
AcDbPolyline
 90
       22
 70
     1
 43
0.0
 10
870.5
 20
563.0
 10
870.8999999999999
 20
560.7
 10
870.5
 20
558.3999999999999
 10
869.5
 20
556.3000000000001
 10
867.8000000000002
 20
554.6
 10
865.7
 20
553.6
 10
863.4
 20
553.2
 10
848.3999999999999
 20
553.2
 10
846.1
 20
553.6
 10
844.0
 20
554.6
 10
842.3000000000001
 20
556.3000000000001
 10
841.3000000000002
 20
558.3999999999999
 10
840.9
 20
560.7
 10
841.3000000000002
 20
563.0
 10
842.3000000000001
 20
565.1
 10
844.0
 20
566.8000000000001
 10
846.1
 20
567.8000000000001
 10
848.3999999999999
 20
568.2
 10
863.4
 20
568.2
 10
865.7
 20
567.8000000000001
 10
867.8000000000002
 20
566.8000000000001
 10
869.5
 20
565.1
  0
LWPOLYLINE
  5
136
330
1F
100
AcDbEntity
  8
backvia
100
AcDbPolyline
 90
       22
 70
     1
 43
0.0
 10
879.6330000000001
 20
1025.318
 10
880.0
 20
1023.0
 10
879.6330000000001
 20
1020.682
 10
878.5679999999999
 20
1018.592
 10
876.908
 20
1016.932
 10
874.8179999999999
 20
1015.867
 10
872.4999999999999
 20
1015.5
 10
857.5000000000001
 20
1015.5
 10
855.1820000000001
 20
1015.867
 10
853.092
 20
1016.932
 10
851.4319999999999
 20
1018.592
 10
850.3669999999999
 20
1020.682
 10
850.0
 20
1023.0
 10
850.3669999999999
 20
1025.318
 10
851.4319999999999
 20
1027.408
 10
853.092
 20
1029.068
 10
855.1820000000001
 20
1030.133
 10
857.5000000000001
 20
1030.5
 10
872.4999999999999
 20
1030.5
 10
874.8179999999999
 20
1030.133
 10
876.908
 20
1029.068
 10
878.5679999999999
 20
1027.408
  0
LWPOLYLINE
  5
137
330
1F
100
AcDbEntity
  8
backvia
100
AcDbPolyline
 90
       22
 70
     1
 43
0.0
 10
888.4999999999999
 20
327.5
 10
888.4999999999999
 20
342.5
 10
888.8999999999999
 20
344.8
 10
889.8999999999999
 20
346.9
 10
891.6
 20
348.6
 10
893.7000000000001
 20
349.6
 10
896.0
 20
350.0
 10
898.3
 20
349.6
 10
900.3999999999999
 20
348.6
 10
902.1
 20
346.9
 10
903.1
 20
344.8
 10
903.5
 20
342.5
 10
903.5
 20
327.5
 10
903.1
 20
325.2
 10
902.1
 20
323.1
 10
900.3999999999999
 20
321.4
 10
898.3
 20
320.4
 10
896.0
 20
320.0
 10
893.7000000000001
 20
320.4
 10
891.6
 20
321.4
 10
889.8999999999999
 20
323.1
 10
888.8999999999999
 20
325.2
  0
LWPOLYLINE
  5
138
330
1F
100
AcDbEntity
  8
backvia
100
AcDbPolyline
 90
       22
 70
     1
 43
0.0
 10
888.4999999999999
 20
605.9
 10
888.4999999999999
 20
620.8999999999999
 10
888.8999999999999
 20
623.2
 10
889.8999999999999
 20
625.3000000000001
 10
891.6
 20
627.0
 10
893.7000000000001
 20
628.0
 10
896.0
 20
628.3999999999999
 10
898.3
 20
628.0
 10
900.3999999999999
 20
627.0
 10
902.1
 20
625.3000000000001
 10
903.1
 20
623.2
 10
903.5
 20
620.8999999999999
 10
903.5
 20
605.9
 10
903.1
 20
603.6
 10
902.1
 20
601.5
 10
900.3999999999999
 20
599.8000000000001
 10
898.3
 20
598.8000000000002
 10
896.0
 20
598.3999999999999
 10
893.7000000000001
 20
598.8000000000002
 10
891.6
 20
599.8000000000001
 10
889.8999999999999
 20
601.5
 10
888.8999999999999
 20
603.6
  0
LWPOLYLINE
  5
185
330
1F
100
AcDbEntity
  8
noDRC
100
AcDbPolyline
 90
        4
 70
     1
 43
0.0
 10
648.3000000000002
 20
741.7
 10
648.3000000000002
 20
866.2
 10
845.8000000000001
 20
866.2
 10
845.8000000000001
 20
741.7
  0
LINE
  5
3D5
330
1F
100
AcDbEntity
  8
met2
100
AcDbLine
 10
814.4999999999999
 20
491.0333333333332
 30
0.0
 11
843.7000000000001
 21
503.2
 31
0.0
  0
LINE
  5
3D6
330
1F
100
AcDbEntity
  8
met2
100
AcDbLine
 10
843.7000000000001
 20
503.2
 30
0.0
 11
912.5
 21
503.2
 31
0.0
  0
LINE
  5
3D7
330
1F
100
AcDbEntity
  8
met2
100
AcDbLine
 10
912.5
 20
503.2
 30
0.0
 11
912.5
 21
445.2
 31
0.0
  0
LINE
  5
3D8
330
1F
100
AcDbEntity
  8
met2
100
AcDbLine
 10
912.5
 20
445.2
 30
0.0
 11
843.7000000000001
 21
445.2
 31
0.0
  0
LINE
  5
3D9
330
1F
100
AcDbEntity
  8
met2
100
AcDbLine
 10
843.7000000000001
 20
445.2
 30
0.0
 11
814.4999999999999
 21
457.3666666666667
 31
0.0
  0
LINE
  5
3F3
330
1F
100
AcDbEntity
  8
met2
100
AcDbLine
 10
762.5
 20
1037.5
 30
0.0
 11
667.4999999999999
 21
1037.5
 31
0.0
  0
LINE
  5
3F4
330
1F
100
AcDbEntity
  8
met2
100
AcDbLine
 10
667.4999999999999
 20
1037.5
 30
0.0
 11
667.4999999999999
 21
1132.5
 31
0.0
  0
LINE
  5
3F5
330
1F
100
AcDbEntity
  8
met2
100
AcDbLine
 10
667.4999999999999
 20
1132.5
 30
0.0
 11
762.5
 21
1132.5
 31
0.0
  0
LINE
  5
3F6
330
1F
100
AcDbEntity
  8
met2
100
AcDbLine
 10
762.5
 20
1132.5
 30
0.0
 11
762.5
 21
1037.5
 31
0.0
  0
LINE
  5
41F
330
1F
100
AcDbEntity
  8
met2
100
AcDbLine
 10
462.5
 20
1037.5
 30
0.0
 11
367.5
 21
1037.5
 31
0.0
  0
LINE
  5
420
330
1F
100
AcDbEntity
  8
met2
100
AcDbLine
 10
367.5
 20
1037.5
 30
0.0
 11
367.5
 21
1132.5
 31
0.0
  0
LINE
  5
421
330
1F
100
AcDbEntity
  8
met2
100
AcDbLine
 10
367.5
 20
1132.5
 30
0.0
 11
462.5
 21
1132.5
 31
0.0
  0
LINE
  5
422
330
1F
100
AcDbEntity
  8
met2
100
AcDbLine
 10
462.5
 20
1132.5
 30
0.0
 11
462.5
 21
1037.5
 31
0.0
  0
LINE
  5
4C5
330
1F
100
AcDbEntity
  8
met2
100
AcDbLine
 10
165.5
 20
662.0666666666665
 30
0.0
 11
136.3
 21
649.8999999999999
 31
0.0
  0
LINE
  5
4C6
330
1F
100
AcDbEntity
  8
met2
100
AcDbLine
 10
136.3
 20
649.8999999999999
 30
0.0
 11
67.5
 21
649.8999999999999
 31
0.0
  0
LINE
  5
4C7
330
1F
100
AcDbEntity
  8
met2
100
AcDbLine
 10
67.5
 20
649.8999999999999
 30
0.0
 11
67.5
 21
707.8999999999999
 31
0.0
  0
LINE
  5
4C8
330
1F
100
AcDbEntity
  8
met2
100
AcDbLine
 10
67.5
 20
707.8999999999999
 30
0.0
 11
136.3
 21
707.8999999999999
 31
0.0
  0
LINE
  5
4C9
330
1F
100
AcDbEntity
  8
met2
100
AcDbLine
 10
136.3
 20
707.8999999999999
 30
0.0
 11
165.5
 21
695.7333333333333
 31
0.0
  0
LINE
  5
514
330
1F
100
AcDbEntity
  8
via2
100
AcDbLine
 10
815.4999999999999
 20
490.3666888896297
 30
0.0
 11
843.8989999999998
 21
502.2
 31
0.0
  0
LINE
  5
515
330
1F
100
AcDbEntity
  8
via2
100
AcDbLine
 10
843.8989999999998
 20
502.2
 30
0.0
 11
911.5
 21
502.2
 31
0.0
  0
LINE
  5
516
330
1F
100
AcDbEntity
  8
via2
100
AcDbLine
 10
911.5
 20
502.2
 30
0.0
 11
911.5
 21
446.2
 31
0.0
  0
LINE
  5
517
330
1F
100
AcDbEntity
  8
via2
100
AcDbLine
 10
911.5
 20
446.2
 30
0.0
 11
843.8989999999998
 21
446.2
 31
0.0
  0
LINE
  5
518
330
1F
100
AcDbEntity
  8
via2
100
AcDbLine
 10
843.8989999999998
 20
446.2
 30
0.0
 11
815.4999999999999
 21
458.0333111103704
 31
0.0
  0
LINE
  5
532
330
1F
100
AcDbEntity
  8
via2
100
AcDbLine
 10
761.5
 20
1038.5
 30
0.0
 11
668.5
 21
1038.5
 31
0.0
  0
LINE
  5
533
330
1F
100
AcDbEntity
  8
via2
100
AcDbLine
 10
668.5
 20
1038.5
 30
0.0
 11
668.5
 21
1131.5
 31
0.0
  0
LINE
  5
534
330
1F
100
AcDbEntity
  8
via2
100
AcDbLine
 10
668.5
 20
1131.5
 30
0.0
 11
761.5
 21
1131.5
 31
0.0
  0
LINE
  5
535
330
1F
100
AcDbEntity
  8
via2
100
AcDbLine
 10
761.5
 20
1131.5
 30
0.0
 11
761.5
 21
1038.5
 31
0.0
  0
LINE
  5
5E7
330
1F
100
AcDbEntity
  8
via2
100
AcDbLine
 10
461.5
 20
1038.5
 30
0.0
 11
368.5
 21
1038.5
 31
0.0
  0
LINE
  5
5E8
330
1F
100
AcDbEntity
  8
via2
100
AcDbLine
 10
368.5
 20
1038.5
 30
0.0
 11
368.5
 21
1131.5
 31
0.0
  0
LINE
  5
5E9
330
1F
100
AcDbEntity
  8
via2
100
AcDbLine
 10
368.5
 20
1131.5
 30
0.0
 11
461.5
 21
1131.5
 31
0.0
  0
LINE
  5
5EA
330
1F
100
AcDbEntity
  8
via2
100
AcDbLine
 10
461.5
 20
1131.5
 30
0.0
 11
461.5
 21
1038.5
 31
0.0
  0
LINE
  5
62C
330
1F
100
AcDbEntity
  8
via2
100
AcDbLine
 10
68.5
 20
650.9
 30
0.0
 11
68.5
 21
706.8999999999999
 31
0.0
  0
LINE
  5
62D
330
1F
100
AcDbEntity
  8
via2
100
AcDbLine
 10
68.5
 20
706.8999999999999
 30
0.0
 11
136.101
 21
706.8999999999999
 31
0.0
  0
LINE
  5
62E
330
1F
100
AcDbEntity
  8
via2
100
AcDbLine
 10
136.101
 20
706.8999999999999
 30
0.0
 11
164.5
 21
695.0666888896296
 31
0.0
  0
LINE
  5
636
330
1F
100
AcDbEntity
  8
via2
100
AcDbLine
 10
164.5
 20
662.7333111103703
 30
0.0
 11
136.101
 21
650.9
 31
0.0
  0
LINE
  5
637
330
1F
100
AcDbEntity
  8
via2
100
AcDbLine
 10
136.101
 20
650.9
 30
0.0
 11
68.5
 21
650.9
 31
0.0
  0
LINE
  5
697
330
1F
100
AcDbEntity
  8
met1
100
AcDbLine
 10
813.4999999999999
 20
491.7
 30
0.0
 11
843.5
 21
504.2
 31
0.0
  0
LINE
  5
698
330
1F
100
AcDbEntity
  8
met1
100
AcDbLine
 10
843.5
 20
504.2
 30
0.0
 11
913.4999999999999
 21
504.2
 31
0.0
  0
LINE
  5
699
330
1F
100
AcDbEntity
  8
met1
100
AcDbLine
 10
913.4999999999999
 20
504.2
 30
0.0
 11
913.4999999999999
 21
444.2
 31
0.0
  0
LINE
  5
69A
330
1F
100
AcDbEntity
  8
met1
100
AcDbLine
 10
913.4999999999999
 20
444.2
 30
0.0
 11
843.5
 21
444.2
 31
0.0
  0
LINE
  5
69B
330
1F
100
AcDbEntity
  8
met1
100
AcDbLine
 10
843.5
 20
444.2
 30
0.0
 11
813.4999999999999
 21
456.7
 31
0.0
  0
LINE
  5
6A3
330
1F
100
AcDbEntity
  8
met1
100
AcDbLine
 10
763.4999999999999
 20
1036.5
 30
0.0
 11
666.5
 21
1036.5
 31
0.0
  0
LINE
  5
6A4
330
1F
100
AcDbEntity
  8
met1
100
AcDbLine
 10
666.5
 20
1036.5
 30
0.0
 11
666.5
 21
1133.5
 31
0.0
  0
LINE
  5
6A5
330
1F
100
AcDbEntity
  8
met1
100
AcDbLine
 10
666.5
 20
1133.5
 30
0.0
 11
763.4999999999999
 21
1133.5
 31
0.0
  0
LINE
  5
6A6
330
1F
100
AcDbEntity
  8
met1
100
AcDbLine
 10
763.4999999999999
 20
1133.5
 30
0.0
 11
763.4999999999999
 21
1036.5
 31
0.0
  0
LINE
  5
6C3
330
1F
100
AcDbEntity
  8
met1
100
AcDbLine
 10
463.4999999999999
 20
1036.5
 30
0.0
 11
366.5
 21
1036.5
 31
0.0
  0
LINE
  5
6C4
330
1F
100
AcDbEntity
  8
met1
100
AcDbLine
 10
366.5
 20
1036.5
 30
0.0
 11
366.5
 21
1133.5
 31
0.0
  0
LINE
  5
6C5
330
1F
100
AcDbEntity
  8
met1
100
AcDbLine
 10
366.5
 20
1133.5
 30
0.0
 11
463.4999999999999
 21
1133.5
 31
0.0
  0
LINE
  5
6C6
330
1F
100
AcDbEntity
  8
met1
100
AcDbLine
 10
463.4999999999999
 20
1133.5
 30
0.0
 11
463.4999999999999
 21
1036.5
 31
0.0
  0
LINE
  5
7EE
330
1F
100
AcDbEntity
  8
met1
100
AcDbLine
 10
66.5
 20
648.8999999999999
 30
0.0
 11
66.5
 21
708.8999999999999
 31
0.0
  0
LINE
  5
7EF
330
1F
100
AcDbEntity
  8
met1
100
AcDbLine
 10
66.5
 20
708.8999999999999
 30
0.0
 11
136.5
 21
708.8999999999999
 31
0.0
  0
LINE
  5
7F0
330
1F
100
AcDbEntity
  8
met1
100
AcDbLine
 10
136.5
 20
708.8999999999999
 30
0.0
 11
166.5
 21
696.3999999999999
 31
0.0
  0
LINE
  5
7F8
330
1F
100
AcDbEntity
  8
met1
100
AcDbLine
 10
166.5
 20
661.3999999999999
 30
0.0
 11
136.5
 21
648.8999999999999
 31
0.0
  0
LINE
  5
7F9
330
1F
100
AcDbEntity
  8
met1
100
AcDbLine
 10
136.5
 20
648.8999999999999
 30
0.0
 11
66.5
 21
648.8999999999999
 31
0.0
  0
LWPOLYLINE
  5
84A
330
1F
100
AcDbEntity
  8
ohmic
100
AcDbPolyline
 90
        4
 70
     1
 43
0.0
 10
348.6
 20
65.0
 10
348.6
 20
165.0
 10
448.6
 20
165.0
 10
448.6
 20
65.0
  0
LWPOLYLINE
  5
84B
330
1F
100
AcDbEntity
  8
met1
100
AcDbPolyline
 90
        4
 70
     1
 43
0.0
 10
350.1
 20
66.5
 10
350.1
 20
163.5
 10
447.1
 20
163.5
 10
447.1
 20
66.5
  0
LWPOLYLINE
  5
84C
330
1F
100
AcDbEntity
  8
via2
100
AcDbPolyline
 90
        4
 70
     1
 43
0.0
 10
352.1
 20
68.5
 10
352.1
 20
161.5
 10
445.1
 20
161.5
 10
445.1
 20
68.5
  0
LWPOLYLINE
  5
84D
330
1F
100
AcDbEntity
  8
met2
100
AcDbPolyline
 90
        4
 70
     1
 43
0.0
 10
351.1
 20
67.5
 10
351.1
 20
162.5
 10
446.1
 20
162.5
 10
446.1
 20
67.5
  0
LINE
  5
84E
330
1F
100
AcDbEntity
  8
met1
100
AcDbLine
 10
166.5
 20
696.3999999999999
 30
0.0
 11
166.5
 21
661.3999999999999
 31
0.0
  0
LINE
  5
84F
330
1F
100
AcDbEntity
  8
via2
100
AcDbLine
 10
164.5
 20
695.0666888896296
 30
0.0
 11
164.5
 21
662.7333111103703
 31
0.0
  0
LINE
  5
850
330
1F
100
AcDbEntity
  8
met2
100
AcDbLine
 10
165.5
 20
695.7333333333333
 30
0.0
 11
165.5
 21
662.0666666666665
 31
0.0
  0
LINE
  5
854
330
1F
100
AcDbEntity
  8
met1
100
AcDbLine
 10
813.4999999999999
 20
456.7
 30
0.0
 11
813.4999999999999
 21
491.7
 31
0.0
  0
LINE
  5
855
330
1F
100
AcDbEntity
  8
via2
100
AcDbLine
 10
815.4999999999999
 20
458.0333111103704
 30
0.0
 11
815.4999999999999
 21
490.3666888896297
 31
0.0
  0
LINE
  5
856
330
1F
100
AcDbEntity
  8
met2
100
AcDbLine
 10
814.4999999999999
 20
457.3666666666667
 30
0.0
 11
814.4999999999999
 21
491.0333333333332
 31
0.0
  0
LWPOLYLINE
  5
857
102
{ACAD_REACTORS
330
87A
330
89E
330
8B8
330
8DC
330
8F6
330
91A
102
}
330
1F
100
AcDbEntity
  8
street
100
AcDbPolyline
 90
        4
 70
     1
 43
0.0
 10
0.0
 20
0.0
 10
980.0
 20
0.0
 10
980.0
 20
1200.0
 10
0.0
 20
1200.0
  0
DIMENSION
  5
860
102
{ACAD_XDICTIONARY
360
86F
102
}
102
{ACAD_REACTORS
330
87A
102
}
330
1F
100
AcDbEntity
  8
dist
100
AcDbDimension
  2
*D1
 10
398.6
 20
-150.0
 30
0.0
 11
721.2666666666666
 21
-150.0
 31
0.0
 70
    32
 71
     5
 42
398.6
  3
Standard
100
AcDbAlignedDimension
 13
0.0
 23
0.0
 33
0.0
 14
398.6
 24
68.5
 34
0.0
100
AcDbRotatedDimension
  0
DIMENSION
  5
885
102
{ACAD_XDICTIONARY
360
893
102
}
102
{ACAD_REACTORS
330
89E
102
}
330
1F
100
AcDbEntity
  8
dist
100
AcDbDimension
  2
*D2
 10
980.0
 20
-300.0
 30
0.0
 11
490.0
 21
-300.0
 31
0.0
 70
    32
 71
     5
 42
980.0
  3
Standard
100
AcDbAlignedDimension
 13
0.0
 23
0.0000000000000355
 33
0.0
 14
980.0
 24
0.0000000000000355
 34
0.0
100
AcDbRotatedDimension
  0
DIMENSION
  5
89F
102
{ACAD_XDICTIONARY
360
8AD
102
}
102
{ACAD_REACTORS
330
8B8
102
}
330
1F
100
AcDbEntity
  8
dist
100
AcDbDimension
  2
*D3
 10
-300.0
 20
678.9000000000001
 30
0.0
 11
-300.0000000000002
 21
339.45
 31
0.0
 70
    32
 71
     5
 42
678.8999999999999
  3
Standard
100
AcDbAlignedDimension
 13
0.0
 23
0.0
 33
0.0
 14
65.0
 24
678.8999999999999
 34
0.0
 50
90.0
100
AcDbRotatedDimension
  0
DIMENSION
  5
8C3
102
{ACAD_XDICTIONARY
360
8D1
102
}
102
{ACAD_REACTORS
330
8DC
102
}
330
1F
100
AcDbEntity
  8
dist
100
AcDbDimension
  2
*D4
 10
-600.0
 20
1200.0
 30
0.0
 11
-600.0000000000002
 21
600.0
 31
0.0
 70
    32
 71
     5
 42
1200.0
  3
Standard
100
AcDbAlignedDimension
 13
0.0
 23
0.0
 33
0.0
 14
0.0
 24
1200.0
 34
0.0
 50
90.0
100
AcDbRotatedDimension
  0
DIMENSION
  5
8DD
102
{ACAD_XDICTIONARY
360
8EB
102
}
102
{ACAD_REACTORS
330
8F6
102
}
330
1F
100
AcDbEntity
  8
dist
100
AcDbDimension
  2
*D5
 10
415.0
 20
1370.0
 30
0.0
 11
737.8641975308641
 21
1370.0
 31
0.0
 70
    32
 71
     5
 42
415.0
  3
Standard
100
AcDbAlignedDimension
 13
0.0
 23
1200.0
 33
0.0
 14
415.0
 24
1135.0
 34
0.0
100
AcDbRotatedDimension
  0
DIMENSION
  5
901
102
{ACAD_XDICTIONARY
360
90F
102
}
102
{ACAD_REACTORS
330
91A
102
}
330
1F
100
AcDbEntity
  8
dist
100
AcDbDimension
  2
*D6
 10
1280.0
 20
474.1999999999999
 30
0.0
 11
1280.0
 21
237.1000000000002
 31
0.0
 70
    32
 71
     5
 42
474.2
  3
Standard
100
AcDbAlignedDimension
 13
980.0
 23
0.0
 33
0.0
 14
915.0
 24
474.2
 34
0.0
 50
90.0
100
AcDbRotatedDimension
  0
MTEXT
  5
928
330
1F
100
AcDbEntity
  8
dist
100
AcDbMText
 10
216.5
 20
678.8999999999999
 30
0.0
 40
45.0
 41
152.7360768912995
 71
     4
 72
     5
  1
LO
 73
     1
 44
1.0
1001
ACAD
1000
ACAD_MTEXT_COLUMN_INFO_BEGIN
1070
    75
1070
     2
1070
    79
1070
     0
1070
    76
1070
     1
1070
    78
1070
     0
1070
    48
1040
152.7360768912995
1070
    49
1040
1.0
1070
    50
1070
     1
1040
47.03703703703704
1000
ACAD_MTEXT_COLUMN_INFO_END
  0
MTEXT
  5
929
330
1F
100
AcDbEntity
  8
dist
100
AcDbMText
 10
415.0
 20
985.0
 30
0.0
 40
45.0
 41
152.7360768912995
 71
     2
 72
     5
  1
I
 73
     1
 44
1.0
1001
ACAD
1000
ACAD_MTEXT_COLUMN_INFO_BEGIN
1070
    75
1070
     2
1070
    79
1070
     0
1070
    76
1070
     1
1070
    78
1070
     0
1070
    48
1040
152.7360768912995
1070
    49
1040
1.0
1070
    50
1070
     1
1040
47.03703703703704
1000
ACAD_MTEXT_COLUMN_INFO_END
  0
MTEXT
  5
92A
330
1F
100
AcDbEntity
  8
dist
100
AcDbMText
 10
763.4999999999999
 20
474.2
 30
0.0
 40
45.0
 41
152.7360768912995
 71
     6
 72
     5
  1
RF
 73
     1
 44
1.0
1001
ACAD
1000
ACAD_MTEXT_COLUMN_INFO_BEGIN
1070
    75
1070
     2
1070
    79
1070
     0
1070
    76
1070
     1
1070
    78
1070
     0
1070
    48
1040
152.7360768912995
1070
    49
1040
1.0
1070
    50
1070
     1
1040
47.03703703703704
1000
ACAD_MTEXT_COLUMN_INFO_END
  0
MTEXT
  5
92B
330
1F
100
AcDbEntity
  8
dist
100
AcDbMText
 10
398.6
 20
215.0
 30
0.0
 40
45.0
 41
152.7360768912995
 71
     8
 72
     5
  1
Vg
 73
     1
 44
1.0
1001
ACAD
1000
ACAD_MTEXT_COLUMN_INFO_BEGIN
1070
    75
1070
     2
1070
    79
1070
     0
1070
    76
1070
     1
1070
    78
1070
     0
1070
    48
1040
152.7360768912995
1070
    49
1040
1.0
1070
    50
1070
     1
1040
47.03703703703704
1000
ACAD_MTEXT_COLUMN_INFO_END
  0
MTEXT
  5
92C
330
1F
100
AcDbEntity
  8
dist
100
AcDbMText
 10
166.2075642585114
 20
359.7716175954009
 30
0.0
 40
45.0
 41
152.7360768912995
 71
     4
 72
     5
  1
gMBR0011
 73
     1
 44
1.0
1001
ACAD
1000
ACAD_MTEXT_COLUMN_INFO_BEGIN
1070
    75
1070
     2
1070
    79
1070
     0
1070
    76
1070
     1
1070
    78
1070
     0
1070
    48
1040
152.7360768912995
1070
    49
1040
1.0
1070
    50
1070
     1
1040
47.03703703703704
1000
ACAD_MTEXT_COLUMN_INFO_END
  0
MTEXT
  5
936
330
1F
100
AcDbEntity
  8
dist
100
AcDbMText
 10
715.0
 20
985.0
 30
0.0
 40
45.0
 41
152.7360768912995
 71
     2
 72
     5
  1
Q
 73
     1
 44
1.0
1001
ACAD
1000
ACAD_MTEXT_COLUMN_INFO_BEGIN
1070
    75
1070
     2
1070
    79
1070
     0
1070
    76
1070
     1
1070
    78
1070
     0
1070
    48
1040
152.7360768912995
1070
    49
1040
1.0
1070
    50
1070
     1
1040
47.03703703703704
1000
ACAD_MTEXT_COLUMN_INFO_END
  0
ENDSEC
  0
SECTION
  2
OBJECTS
  0
DICTIONARY
  5
C
330
0
100
AcDbDictionary
281
     1
  3
ACAD_2007HEADERVARS_RT
350
A10
  3
ACAD_CIP_PREVIOUS_PRODUCT_INFO
350
1B2
  3
ACAD_COLOR
350
1AD
  3
ACAD_GROUP
350
D
  3
ACAD_LAYOUT
350
1A
  3
ACAD_MATERIAL
350
18A
  3
ACAD_MLEADERSTYLE
350
187
  3
ACAD_MLINESTYLE
350
17
  3
ACAD_PLOTSETTINGS
350
19
  3
ACAD_PLOTSTYLENAME
350
E
  3
ACAD_SCALELIST
350
3B
  3
ACAD_TABLESTYLE
350
186
  3
ACAD_VISUALSTYLE
350
2A
  3
ACDB_RECOMPOSE_DATA
350
A0F
  3
AcDbVariableDictionary
350
94B
  0
DICTIONARY
  5
93A
330
2
100
AcDbDictionary
280
     1
281
     1
  3
ACAD_LAYERSTATES
360
93B
  0
DICTIONARY
  5
1B3
330
10
100
AcDbDictionary
280
     1
281
     1
  3
ADSK_XREC_LAYER_RECONCILED
360
1B4
  0
DICTIONARY
  5
1B7
330
60
100
AcDbDictionary
280
     1
281
     1
  3
ADSK_XREC_LAYER_RECONCILED
360
1B8
  0
DICTIONARY
  5
1BB
330
83
100
AcDbDictionary
280
     1
281
     1
  3
ADSK_XREC_LAYER_RECONCILED
360
1BC
  0
DICTIONARY
  5
1BD
330
B4
100
AcDbDictionary
280
     1
281
     1
  3
ADSK_XREC_LAYER_RECONCILED
360
1BE
  0
DICTIONARY
  5
1BF
330
F3
100
AcDbDictionary
280
     1
281
     1
  3
ADSK_XREC_LAYER_RECONCILED
360
1C0
  0
DICTIONARY
  5
1C3
330
123
100
AcDbDictionary
280
     1
281
     1
  3
ADSK_XREC_LAYER_RECONCILED
360
1C4
  0
DICTIONARY
  5
1C5
330
13A
100
AcDbDictionary
280
     1
281
     1
  3
ADSK_XREC_LAYER_RECONCILED
360
1C6
  0
DICTIONARY
  5
1D7
330
184
100
AcDbDictionary
280
     1
281
     1
  3
ADSK_XREC_LAYER_RECONCILED
360
1D8
  0
DICTIONARY
  5
1E6
330
1F
100
AcDbDictionary
280
     1
281
     1
  3
ACAD_SORTENTS
360
1E7
  0
DICTIONARY
  5
86F
330
860
100
AcDbDictionary
280
     1
281
     1
  3
ACAD_DIMASSOC
360
87A
  0
DICTIONARY
  5
893
330
885
100
AcDbDictionary
280
     1
281
     1
  3
ACAD_DIMASSOC
360
89E
  0
DICTIONARY
  5
8AD
330
89F
100
AcDbDictionary
280
     1
281
     1
  3
ACAD_DIMASSOC
360
8B8
  0
DICTIONARY
  5
8D1
330
8C3
100
AcDbDictionary
280
     1
281
     1
  3
ACAD_DIMASSOC
360
8DC
  0
DICTIONARY
  5
8EB
330
8DD
100
AcDbDictionary
280
     1
281
     1
  3
ACAD_DIMASSOC
360
8F6
  0
DICTIONARY
  5
90F
330
901
100
AcDbDictionary
280
     1
281
     1
  3
ACAD_DIMASSOC
360
91A
  0
DICTIONARY
  5
A10
102
{ACAD_REACTORS
330
C
102
}
330
C
100
AcDbDictionary
281
     1
  3
DIMLTEX1
350
A12
  3
DIMLTEX2
350
A13
  3
DIMLTYPE
350
A11
  0
XRECORD
  5
1B2
102
{ACAD_REACTORS
330
C
102
}
330
C
100
AcDbXrecord
280
     1
300
ACD
300
2012
300
85769EMS_2012_0F
  0
DICTIONARY
  5
1AD
102
{ACAD_REACTORS
330
C
102
}
330
C
100
AcDbDictionary
281
     1
  0
DICTIONARY
  5
D
102
{ACAD_REACTORS
330
C
102
}
330
C
100
AcDbDictionary
281
     1
  0
DICTIONARY
  5
1A
102
{ACAD_REACTORS
330
C
102
}
330
C
100
AcDbDictionary
281
     1
  3
Layout1
350
1E
  3
Layout2
350
26
  3
Model
350
22
  0
DICTIONARY
  5
18A
102
{ACAD_REACTORS
330
C
102
}
330
C
100
AcDbDictionary
281
     1
  3
ByBlock
350
193
  3
ByLayer
350
18B
  3
Global
350
19B
  0
DICTIONARY
  5
187
102
{ACAD_REACTORS
330
C
102
}
330
C
100
AcDbDictionary
281
     1
  3
Standard
350
1AF
  0
DICTIONARY
  5
17
102
{ACAD_REACTORS
330
C
102
}
330
C
100
AcDbDictionary
281
     1
  3
Standard
350
18
  0
DICTIONARY
  5
19
102
{ACAD_REACTORS
330
C
102
}
330
C
100
AcDbDictionary
281
     1
  0
ACDBDICTIONARYWDFLT
  5
E
102
{ACAD_REACTORS
330
C
102
}
330
C
100
AcDbDictionary
281
     1
  3
Normal
350
F
100
AcDbDictionaryWithDefault
340
F
  0
DICTIONARY
  5
3B
102
{ACAD_REACTORS
330
C
102
}
330
C
100
AcDbDictionary
281
     1
  3
A0
350
3C
  3
A1
350
3D
  3
A2
350
3E
  3
A3
350
3F
  3
A4
350
40
  3
A5
350
41
  3
A6
350
42
  3
A7
350
43
  3
A8
350
44
  3
A9
350
45
  3
B0
350
46
  3
B1
350
47
  3
B2
350
48
  3
B3
350
49
  3
B4
350
4A
  3
B5
350
4B
  3
B6
350
4C
  3
B7
350
4D
  3
B8
350
4E
  3
B9
350
4F
  3
C0
350
50
  3
C1
350
51
  3
C2
350
52
  3
C3
350
53
  3
C4
350
54
  3
C5
350
55
  3
C6
350
56
  3
C7
350
57
  3
C8
350
58
  3
C9
350
59
  3
D0
350
5A
  3
D1
350
5B
  3
D2
350
5C
  0
DICTIONARY
  5
186
102
{ACAD_REACTORS
330
C
102
}
330
C
100
AcDbDictionary
281
     1
  3
Standard
350
1AE
  0
DICTIONARY
  5
2A
102
{ACAD_REACTORS
330
C
102
}
330
C
100
AcDbDictionary
281
     1
  3
2dWireframe
350
2F
  3
3D Hidden
350
31
  3
3dWireframe
350
30
  3
Basic
350
32
  3
Brighten
350
36
  3
ColorChange
350
3A
  3
Conceptual
350
34
  3
Dim
350
35
  3
EdgeColorOff
350
1AC
  3
Facepattern
350
39
  3
Flat
350
2B
  3
FlatWithEdges
350
2C
  3
Gouraud
350
2D
  3
GouraudWithEdges
350
2E
  3
Hidden
350
1A4
  3
JitterOff
350
1AA
  3
Linepattern
350
38
  3
OverhangOff
350
1AB
  3
Realistic
350
33
  3
Shaded
350
1A9
  3
Shaded with edges
350
1A8
  3
Shades of Gray
350
1A5
  3
Sketchy
350
1A6
  3
Thicken
350
37
  3
Wireframe
350
1A3
  3
X-Ray
350
1A7
  0
XRECORD
  5
A0F
102
{ACAD_REACTORS
330
C
102
}
330
C
100
AcDbXrecord
280
     1
 90
        1
330
1AE
330
928
330
929
330
92A
330
92B
330
92C
330
936
  0
DICTIONARY
  5
94B
102
{ACAD_REACTORS
330
C
102
}
330
C
100
AcDbDictionary
281
     1
  3
CANNOSCALE
350
94E
  3
CMLEADERSTYLE
350
94D
  3
CTABLESTYLE
350
94C
  0
DICTIONARY
  5
93B
102
{ACAD_REACTORS
330
93A
102
}
330
93A
100
AcDbDictionary
281
     1
  0
XRECORD
  5
1B4
102
{ACAD_REACTORS
330
1B3
102
}
330
1B3
100
AcDbXrecord
280
     1
290
     1
  0
XRECORD
  5
1B8
102
{ACAD_REACTORS
330
1B7
102
}
330
1B7
100
AcDbXrecord
280
     1
290
     1
  0
XRECORD
  5
1BC
102
{ACAD_REACTORS
330
1BB
102
}
330
1BB
100
AcDbXrecord
280
     1
290
     1
  0
XRECORD
  5
1BE
102
{ACAD_REACTORS
330
1BD
102
}
330
1BD
100
AcDbXrecord
280
     1
290
     1
  0
XRECORD
  5
1C0
102
{ACAD_REACTORS
330
1BF
102
}
330
1BF
100
AcDbXrecord
280
     1
290
     1
  0
XRECORD
  5
1C4
102
{ACAD_REACTORS
330
1C3
102
}
330
1C3
100
AcDbXrecord
280
     1
290
     1
  0
XRECORD
  5
1C6
102
{ACAD_REACTORS
330
1C5
102
}
330
1C5
100
AcDbXrecord
280
     1
290
     1
  0
XRECORD
  5
1D8
102
{ACAD_REACTORS
330
1D7
102
}
330
1D7
100
AcDbXrecord
280
     1
290
     1
  0
SORTENTSTABLE
  5
1E7
102
{ACAD_REACTORS
330
1E6
102
}
330
1E6
100
AcDbSortentsTable
330
1F
331
11A
  5
684
331
62E
  5
3C3
331
517
  5
4EB
331
185
  5
849
331
91
  5
206
331
A2
  5
330
331
3F3
  5
60A
331
11B
  5
685
331
134
  5
747
331
CC
  5
424
331
518
  5
4EC
331
68
  5
8A
331
79
  5
144
331
3F4
  5
60B
331
135
  5
748
331
F2
  5
518
331
7A
  5
154
331
6C3
  5
327
331
FB
  5
547
331
3F5
  5
60C
331
4C5
  5
53D
331
136
  5
749
331
82
  5
1E5
331
7B
  5
156
331
6C4
  5
328
331
10D
  5
5FB
331
A5
  5
350
331
3F6
  5
60D
331
4C6
  5
53E
331
137
  5
74A
331
CF
  5
437
331
F4
  5
519
331
6A3
  5
346
331
3D5
  5
633
331
6C5
  5
329
331
4C7
  5
53F
331
7C
  5
157
331
6A4
  5
347
331
7D
  5
158
331
3D6
  5
634
331
4C8
  5
540
331
532
  5
4C8
331
6C6
  5
32A
331
6A5
  5
348
331
E6
  5
4F1
331
7E
  5
159
331
5E7
  5
411
331
3D7
  5
635
331
110
  5
61C
331
4C9
  5
541
331
129
  5
6A9
331
533
  5
4C9
331
6A6
  5
349
331
5E8
  5
412
331
3D8
  5
636
331
C2
  5
3F7
331
534
  5
4CA
331
636
  5
3CB
331
7F8
  5
1F2
331
B0
  5
3BC
331
5E9
  5
413
331
3D9
  5
637
331
AA
  5
36F
331
535
  5
4CB
331
7EE
  5
1E8
331
637
  5
3CC
331
5F
  5
75
331
7F9
  5
1F3
331
B1
  5
3BD
331
122
  5
68E
331
697
  5
355
331
5EA
  5
414
331
7EF
  5
1E9
331
7F0
  5
1EA
331
61
  5
76
331
B2
  5
3BE
331
698
  5
356
331
EA
  5
50B
331
41F
  5
5F3
331
420
  5
5F4
331
62
  5
79
331
124
  5
68F
331
699
  5
357
331
EB
  5
50C
331
421
  5
5F5
331
125
  5
690
331
69A
  5
358
331
116
  5
65E
331
AE
  5
3BA
331
130
  5
719
331
422
  5
5F6
331
514
  5
4E8
331
B5
  5
3C0
331
126
  5
691
331
69B
  5
359
331
8D
  5
1FC
331
AF
  5
3BB
331
B8
  5
3CE
331
131
  5
71A
331
62C
  5
3C1
331
515
  5
4E9
331
65
  5
82
331
DD
  5
49A
331
75
  5
12B
331
119
  5
683
331
62D
  5
3C2
331
516
  5
4EA
331
138
  5
74B
331
76
  5
130
  0
DIMASSOC
  5
87A
102
{ACAD_REACTORS
330
86F
102
}
330
86F
100
AcDbDimAssoc
330
860
 90
        1
 70
     0
 71
     0
  1
AcDbOsnapPointRef
 72
    13
331
857
 73
     2
 91
        1
 40
0.0
 10
0.0
 20
0.0
 30
2.000000000000000E+50
 75
     0
  0
DIMASSOC
  5
89E
102
{ACAD_REACTORS
330
893
102
}
330
893
100
AcDbDimAssoc
330
885
 90
        2
 70
     0
 71
     0
  1
AcDbOsnapPointRef
 72
     8
331
857
 73
     2
 91
        2
 40
0.0
 10
0.0
 20
0.0
 30
0.0
 75
     1
  1
AcDbOsnapPointRef
 72
     0
 40
0.0
 10
0.0
 20
0.0000000000000355
 30
0.0
 75
     0
  0
DIMASSOC
  5
8B8
102
{ACAD_REACTORS
330
8AD
102
}
330
8AD
100
AcDbDimAssoc
330
89F
 90
        3
 70
     0
 71
     0
  1
AcDbOsnapPointRef
 72
    13
331
857
 73
     2
 91
        1
 40
0.0
 10
0.0
 20
0.0
 30
2.000000000000000E+50
 75
     0
  1
AcDbOsnapPointRef
 72
     2
331
5F
 73
     2
 91
        1
 40
0.5
 10
0.0
 20
0.0
 30
0.0
 75
     0
  0
DIMASSOC
  5
8DC
102
{ACAD_REACTORS
330
8D1
102
}
330
8D1
100
AcDbDimAssoc
330
8C3
 90
        3
 70
     0
 71
     0
  1
AcDbOsnapPointRef
 72
    13
331
857
 73
     2
 91
        1
 40
0.0
 10
0.0
 20
0.0
 30
2.000000000000000E+50
 75
     0
  1
AcDbOsnapPointRef
 72
     1
331
857
 73
     2
 91
        3
 40
1.0
 10
0.0
 20
0.0
 30
2.000000000000000E+50
 75
     0
  0
DIMASSOC
  5
8F6
102
{ACAD_REACTORS
330
8EB
102
}
330
8EB
100
AcDbDimAssoc
330
8DD
 90
        3
 70
     0
 71
     0
  1
AcDbOsnapPointRef
 72
     1
331
857
 73
     2
 91
        3
 40
1.0
 10
0.0
 20
0.0
 30
2.000000000000000E+50
 75
     0
  1
AcDbOsnapPointRef
 72
     2
331
68
 73
     2
 91
        2
 40
0.5
 10
0.0
 20
0.0
 30
0.0
 75
     0
  0
DIMASSOC
  5
91A
102
{ACAD_REACTORS
330
90F
102
}
330
90F
100
AcDbDimAssoc
330
901
 90
        3
 70
     0
 71
     0
  1
AcDbOsnapPointRef
 72
     1
331
857
 73
     2
 91
        1
 40
1.0
 10
0.0
 20
0.0
 30
2.000000000000000E+50
 75
     0
  1
AcDbOsnapPointRef
 72
     2
331
7C
 73
     2
 91
        3
 40
0.5
 10
0.0
 20
0.0
 30
0.0
 75
     0
  0
XRECORD
  5
A12
102
{ACAD_REACTORS
330
A10
102
}
330
A10
100
AcDbXrecord
280
     1
340
14
  0
XRECORD
  5
A13
102
{ACAD_REACTORS
330
A10
102
}
330
A10
100
AcDbXrecord
280
     1
340
14
  0
XRECORD
  5
A11
102
{ACAD_REACTORS
330
A10
102
}
330
A10
100
AcDbXrecord
280
     1
340
14
  0
LAYOUT
  5
1E
102
{ACAD_REACTORS
330
1A
102
}
330
1A
100
AcDbPlotSettings
  1

  2
none_device
  4

  6

 40
0.0
 41
0.0
 42
0.0
 43
0.0
 44
0.0
 45
0.0
 46
0.0
 47
0.0
 48
0.0
 49
0.0
140
0.0
141
0.0
142
1.0
143
1.0
 70
   688
 72
     0
 73
     0
 74
     5
  7

 75
    16
147
1.0
 76
     0
 77
     2
 78
   300
148
0.0
149
0.0
100
AcDbLayout
  1
Layout1
 70
     1
 71
     1
 10
0.0
 20
0.0
 11
12.0
 21
9.0
 12
0.0
 22
0.0
 32
0.0
 14
1.000000000000000E+20
 24
1.000000000000000E+20
 34
1.000000000000000E+20
 15
-1.000000000000000E+20
 25
-1.000000000000000E+20
 35
-1.000000000000000E+20
146
0.0
 13
0.0
 23
0.0
 33
0.0
 16
1.0
 26
0.0
 36
0.0
 17
0.0
 27
1.0
 37
0.0
 76
     0
330
1B
  0
LAYOUT
  5
26
102
{ACAD_REACTORS
330
1A
102
}
330
1A
100
AcDbPlotSettings
  1

  2
none_device
  4

  6

 40
0.0
 41
0.0
 42
0.0
 43
0.0
 44
0.0
 45
0.0
 46
0.0
 47
0.0
 48
0.0
 49
0.0
140
0.0
141
0.0
142
1.0
143
1.0
 70
   688
 72
     0
 73
     0
 74
     5
  7

 75
    16
147
1.0
 76
     0
 77
     2
 78
   300
148
0.0
149
0.0
100
AcDbLayout
  1
Layout2
 70
     1
 71
     2
 10
0.0
 20
0.0
 11
0.0
 21
0.0
 12
0.0
 22
0.0
 32
0.0
 14
0.0
 24
0.0
 34
0.0
 15
0.0
 25
0.0
 35
0.0
146
0.0
 13
0.0
 23
0.0
 33
0.0
 16
1.0
 26
0.0
 36
0.0
 17
0.0
 27
1.0
 37
0.0
 76
     0
330
23
  0
LAYOUT
  5
22
102
{ACAD_XDICTIONARY
360
940
102
}
102
{ACAD_REACTORS
330
1A
102
}
330
1A
100
AcDbPlotSettings
  1

  2
none_device
  4

  6

 40
0.0
 41
0.0
 42
0.0
 43
0.0
 44
0.0
 45
0.0
 46
0.0
 47
0.0
 48
0.0
 49
0.0
140
0.0
141
0.0
142
1.0
143
1.0
 70
  1712
 72
     0
 73
     0
 74
     0
  7

 75
     0
147
1.0
 76
     0
 77
     2
 78
   300
148
0.0
149
0.0
100
AcDbLayout
  1
Model
 70
     1
 71
     0
 10
0.0
 20
0.0
 11
12.0
 21
9.0
 12
0.0
 22
0.0
 32
0.0
 14
1.000000000000000E+20
 24
1.000000000000000E+20
 34
1.000000000000000E+20
 15
-1.000000000000000E+20
 25
-1.000000000000000E+20
 35
-1.000000000000000E+20
146
0.0
 13
0.0
 23
0.0
 33
0.0
 16
1.0
 26
0.0
 36
0.0
 17
0.0
 27
1.0
 37
0.0
 76
     0
330
1F
331
29
  0
MATERIAL
  5
193
102
{ACAD_XDICTIONARY
360
194
102
}
102
{ACAD_REACTORS
330
18A
102
}
330
18A
100
AcDbMaterial
  1
ByBlock
 72
     0
 43
0.0000008202099738
 43
0.0
 43
0.0
 43
0.0
 43
0.0
 43
0.0000008202099738
 43
0.0
 43
0.0
 43
0.0
 43
0.0
 43
1.0
 43
0.0
 43
0.0
 43
0.0
 43
0.0
 43
1.0
 77
     0
 47
0.0000008202099738
 47
0.0
 47
0.0
 47
0.0
 47
0.0
 47
0.0000008202099738
 47
0.0
 47
0.0
 47
0.0
 47
0.0
 47
1.0
 47
0.0
 47
0.0
 47
0.0
 47
0.0
 47
1.0
171
     0
 49
0.0000008202099738
 49
0.0
 49
0.0
 49
0.0
 49
0.0
 49
0.0000008202099738
 49
0.0
 49
0.0
 49
0.0
 49
0.0
 49
1.0
 49
0.0
 49
0.0
 49
0.0
 49
0.0
 49
1.0
175
     0
142
0.0000008202099738
142
0.0
142
0.0
142
0.0
142
0.0
142
0.0000008202099738
142
0.0
142
0.0
142
0.0
142
0.0
142
1.0
142
0.0
142
0.0
142
0.0
142
0.0
142
1.0
179
     0
144
0.0000008202099738
144
0.0
144
0.0
144
0.0
144
0.0
144
0.0000008202099738
144
0.0
144
0.0
144
0.0
144
0.0
144
1.0
144
0.0
144
0.0
144
0.0
144
0.0
144
1.0
147
0.0000008202099738
147
0.0
147
0.0
147
0.0
147
0.0
147
0.0000008202099738
147
0.0
147
0.0
147
0.0
147
0.0
147
1.0
147
0.0
147
0.0
147
0.0
147
0.0
147
1.0
  0
MATERIAL
  5
18B
102
{ACAD_XDICTIONARY
360
18C
102
}
102
{ACAD_REACTORS
330
18A
102
}
330
18A
100
AcDbMaterial
  1
ByLayer
 72
     0
 43
0.0000008202099738
 43
0.0
 43
0.0
 43
0.0
 43
0.0
 43
0.0000008202099738
 43
0.0
 43
0.0
 43
0.0
 43
0.0
 43
1.0
 43
0.0
 43
0.0
 43
0.0
 43
0.0
 43
1.0
 77
     0
 47
0.0000008202099738
 47
0.0
 47
0.0
 47
0.0
 47
0.0
 47
0.0000008202099738
 47
0.0
 47
0.0
 47
0.0
 47
0.0
 47
1.0
 47
0.0
 47
0.0
 47
0.0
 47
0.0
 47
1.0
171
     0
 49
0.0000008202099738
 49
0.0
 49
0.0
 49
0.0
 49
0.0
 49
0.0000008202099738
 49
0.0
 49
0.0
 49
0.0
 49
0.0
 49
1.0
 49
0.0
 49
0.0
 49
0.0
 49
0.0
 49
1.0
175
     0
142
0.0000008202099738
142
0.0
142
0.0
142
0.0
142
0.0
142
0.0000008202099738
142
0.0
142
0.0
142
0.0
142
0.0
142
1.0
142
0.0
142
0.0
142
0.0
142
0.0
142
1.0
179
     0
144
0.0000008202099738
144
0.0
144
0.0
144
0.0
144
0.0
144
0.0000008202099738
144
0.0
144
0.0
144
0.0
144
0.0
144
1.0
144
0.0
144
0.0
144
0.0
144
0.0
144
1.0
147
0.0000008202099738
147
0.0
147
0.0
147
0.0
147
0.0
147
0.0000008202099738
147
0.0
147
0.0
147
0.0
147
0.0
147
1.0
147
0.0
147
0.0
147
0.0
147
0.0
147
1.0
  0
MATERIAL
  5
19B
102
{ACAD_XDICTIONARY
360
19C
102
}
102
{ACAD_REACTORS
330
18A
102
}
330
18A
100
AcDbMaterial
  1
Global
 72
     0
 43
0.0000008202099738
 43
0.0
 43
0.0
 43
0.0
 43
0.0
 43
0.0000008202099738
 43
0.0
 43
0.0
 43
0.0
 43
0.0
 43
1.0
 43
0.0
 43
0.0
 43
0.0
 43
0.0
 43
1.0
 77
     0
 47
0.0000008202099738
 47
0.0
 47
0.0
 47
0.0
 47
0.0
 47
0.0000008202099738
 47
0.0
 47
0.0
 47
0.0
 47
0.0
 47
1.0
 47
0.0
 47
0.0
 47
0.0
 47
0.0
 47
1.0
171
     0
 49
0.0000008202099738
 49
0.0
 49
0.0
 49
0.0
 49
0.0
 49
0.0000008202099738
 49
0.0
 49
0.0
 49
0.0
 49
0.0
 49
1.0
 49
0.0
 49
0.0
 49
0.0
 49
0.0
 49
1.0
175
     0
142
0.0000008202099738
142
0.0
142
0.0
142
0.0
142
0.0
142
0.0000008202099738
142
0.0
142
0.0
142
0.0
142
0.0
142
1.0
142
0.0
142
0.0
142
0.0
142
0.0
142
1.0
179
     0
144
0.0000008202099738
144
0.0
144
0.0
144
0.0
144
0.0
144
0.0000008202099738
144
0.0
144
0.0
144
0.0
144
0.0
144
1.0
144
0.0
144
0.0
144
0.0
144
0.0
144
1.0
147
0.0000008202099738
147
0.0
147
0.0
147
0.0
147
0.0
147
0.0000008202099738
147
0.0
147
0.0
147
0.0
147
0.0
147
1.0
147
0.0
147
0.0
147
0.0
147
0.0
147
1.0
  0
MLEADERSTYLE
  5
1AF
102
{ACAD_REACTORS
330
187
102
}
330
187
100
AcDbMLeaderStyle
170
     2
171
     1
172
     0
 90
        2
 40
0.0
 41
0.0
173
     1
 91
-1056964608
340
14
 92
       -2
290
     1
 42
0.09
291
     1
 43
0.36
  3
Standard
 44
0.18
300

342
11
174
     1
178
     6
175
     1
176
     0
 93
-1056964608
 45
0.18
292
     0
297
     0
 46
0.18
 94
-1056964608
 47
1.0
 49
1.0
140
1.0
293
     1
141
0.0
294
     1
177
     0
142
1.0
295
     0
296
     0
143
0.125
1001
ACAD_MLEADERVER
1070
     2
  0
MLINESTYLE
  5
18
102
{ACAD_REACTORS
330
17
102
}
330
17
100
AcDbMlineStyle
  2
STANDARD
 70
     0
  3

 62
   256
 51
90.0
 52
90.0
 71
     2
 49
0.5
 62
   256
  6
BYLAYER
 49
-0.5
 62
   256
  6
BYLAYER
  0
ACDBPLACEHOLDER
  5
F
102
{ACAD_REACTORS
330
E
102
}
330
E
  0
SCALE
  5
3C
102
{ACAD_REACTORS
330
3B
102
}
330
3B
100
AcDbScale
 70
     0
300
1:1
140
1.0
141
1.0
290
     1
  0
SCALE
  5
3D
102
{ACAD_REACTORS
330
3B
102
}
330
3B
100
AcDbScale
 70
     0
300
1:2
140
1.0
141
2.0
290
     0
  0
SCALE
  5
3E
102
{ACAD_REACTORS
330
3B
102
}
330
3B
100
AcDbScale
 70
     0
300
1:4
140
1.0
141
4.0
290
     0
  0
SCALE
  5
3F
102
{ACAD_REACTORS
330
3B
102
}
330
3B
100
AcDbScale
 70
     0
300
1:5
140
1.0
141
5.0
290
     0
  0
SCALE
  5
40
102
{ACAD_REACTORS
330
3B
102
}
330
3B
100
AcDbScale
 70
     0
300
1:8
140
1.0
141
8.0
290
     0
  0
SCALE
  5
41
102
{ACAD_REACTORS
330
3B
102
}
330
3B
100
AcDbScale
 70
     0
300
1:10
140
1.0
141
10.0
290
     0
  0
SCALE
  5
42
102
{ACAD_REACTORS
330
3B
102
}
330
3B
100
AcDbScale
 70
     0
300
1:16
140
1.0
141
16.0
290
     0
  0
SCALE
  5
43
102
{ACAD_REACTORS
330
3B
102
}
330
3B
100
AcDbScale
 70
     0
300
1:20
140
1.0
141
20.0
290
     0
  0
SCALE
  5
44
102
{ACAD_REACTORS
330
3B
102
}
330
3B
100
AcDbScale
 70
     0
300
1:30
140
1.0
141
30.0
290
     0
  0
SCALE
  5
45
102
{ACAD_REACTORS
330
3B
102
}
330
3B
100
AcDbScale
 70
     0
300
1:40
140
1.0
141
40.0
290
     0
  0
SCALE
  5
46
102
{ACAD_REACTORS
330
3B
102
}
330
3B
100
AcDbScale
 70
     0
300
1:50
140
1.0
141
50.0
290
     0
  0
SCALE
  5
47
102
{ACAD_REACTORS
330
3B
102
}
330
3B
100
AcDbScale
 70
     0
300
1:100
140
1.0
141
100.0
290
     0
  0
SCALE
  5
48
102
{ACAD_REACTORS
330
3B
102
}
330
3B
100
AcDbScale
 70
     0
300
2:1
140
2.0
141
1.0
290
     0
  0
SCALE
  5
49
102
{ACAD_REACTORS
330
3B
102
}
330
3B
100
AcDbScale
 70
     0
300
4:1
140
4.0
141
1.0
290
     0
  0
SCALE
  5
4A
102
{ACAD_REACTORS
330
3B
102
}
330
3B
100
AcDbScale
 70
     0
300
8:1
140
8.0
141
1.0
290
     0
  0
SCALE
  5
4B
102
{ACAD_REACTORS
330
3B
102
}
330
3B
100
AcDbScale
 70
     0
300
10:1
140
10.0
141
1.0
290
     0
  0
SCALE
  5
4C
102
{ACAD_REACTORS
330
3B
102
}
330
3B
100
AcDbScale
 70
     0
300
100:1
140
100.0
141
1.0
290
     0
  0
SCALE
  5
4D
102
{ACAD_REACTORS
330
3B
102
}
330
3B
100
AcDbScale
 70
     0
300
1/128" = 1'-0"
140
0.0078125
141
12.0
290
     0
  0
SCALE
  5
4E
102
{ACAD_REACTORS
330
3B
102
}
330
3B
100
AcDbScale
 70
     0
300
1/64" = 1'-0"
140
0.015625
141
12.0
290
     0
  0
SCALE
  5
4F
102
{ACAD_REACTORS
330
3B
102
}
330
3B
100
AcDbScale
 70
     0
300
1/32" = 1'-0"
140
0.03125
141
12.0
290
     0
  0
SCALE
  5
50
102
{ACAD_REACTORS
330
3B
102
}
330
3B
100
AcDbScale
 70
     0
300
1/16" = 1'-0"
140
0.0625
141
12.0
290
     0
  0
SCALE
  5
51
102
{ACAD_REACTORS
330
3B
102
}
330
3B
100
AcDbScale
 70
     0
300
3/32" = 1'-0"
140
0.09375
141
12.0
290
     0
  0
SCALE
  5
52
102
{ACAD_REACTORS
330
3B
102
}
330
3B
100
AcDbScale
 70
     0
300
1/8" = 1'-0"
140
0.125
141
12.0
290
     0
  0
SCALE
  5
53
102
{ACAD_REACTORS
330
3B
102
}
330
3B
100
AcDbScale
 70
     0
300
3/16" = 1'-0"
140
0.1875
141
12.0
290
     0
  0
SCALE
  5
54
102
{ACAD_REACTORS
330
3B
102
}
330
3B
100
AcDbScale
 70
     0
300
1/4" = 1'-0"
140
0.25
141
12.0
290
     0
  0
SCALE
  5
55
102
{ACAD_REACTORS
330
3B
102
}
330
3B
100
AcDbScale
 70
     0
300
3/8" = 1'-0"
140
0.375
141
12.0
290
     0
  0
SCALE
  5
56
102
{ACAD_REACTORS
330
3B
102
}
330
3B
100
AcDbScale
 70
     0
300
1/2" = 1'-0"
140
0.5
141
12.0
290
     0
  0
SCALE
  5
57
102
{ACAD_REACTORS
330
3B
102
}
330
3B
100
AcDbScale
 70
     0
300
3/4" = 1'-0"
140
0.75
141
12.0
290
     0
  0
SCALE
  5
58
102
{ACAD_REACTORS
330
3B
102
}
330
3B
100
AcDbScale
 70
     0
300
1" = 1'-0"
140
1.0
141
12.0
290
     0
  0
SCALE
  5
59
102
{ACAD_REACTORS
330
3B
102
}
330
3B
100
AcDbScale
 70
     0
300
1-1/2" = 1'-0"
140
1.5
141
12.0
290
     0
  0
SCALE
  5
5A
102
{ACAD_REACTORS
330
3B
102
}
330
3B
100
AcDbScale
 70
     0
300
3" = 1'-0"
140
3.0
141
12.0
290
     0
  0
SCALE
  5
5B
102
{ACAD_REACTORS
330
3B
102
}
330
3B
100
AcDbScale
 70
     0
300
6" = 1'-0"
140
6.0
141
12.0
290
     0
  0
SCALE
  5
5C
102
{ACAD_REACTORS
330
3B
102
}
330
3B
100
AcDbScale
 70
     0
300
1'-0" = 1'-0"
140
12.0
141
12.0
290
     0
  0
TABLESTYLE
  5
1AE
102
{ACAD_XDICTIONARY
360
A0D
102
}
102
{ACAD_REACTORS
330
186
102
}
330
186
100
AcDbTableStyle
  3
Standard
 70
     0
 71
     0
 40
0.06
 41
0.06
280
     0
281
     0
  7
Standard
140
0.18
170
     2
 62
     0
 63
     7
283
     0
274
    -2
284
     1
 64
     0
275
    -2
285
     1
 65
     0
276
    -2
286
     1
 66
     0
277
    -2
287
     1
 67
     0
278
    -2
288
     1
 68
     0
279
    -2
289
     1
 69
     0
  7
Standard
140
0.25
170
     5
 62
     0
 63
     7
283
     0
274
    -2
284
     1
 64
     0
275
    -2
285
     1
 65
     0
276
    -2
286
     1
 66
     0
277
    -2
287
     1
 67
     0
278
    -2
288
     1
 68
     0
279
    -2
289
     1
 69
     0
  7
Standard
140
0.18
170
     5
 62
     0
 63
     7
283
     0
274
    -2
284
     1
 64
     0
275
    -2
285
     1
 65
     0
276
    -2
286
     1
 66
     0
277
    -2
287
     1
 67
     0
278
    -2
288
     1
 68
     0
279
    -2
289
     1
 69
     0
  0
VISUALSTYLE
  5
2F
102
{ACAD_XDICTIONARY
360
A1F
102
}
102
{ACAD_REACTORS
330
2A
102
}
330
2A
100
AcDbVisualStyle
  2

 70
     4
 71
     0
 72
     2
 73
     0
 90
        0
 40
-0.6
 41
-30.0
 62
     5
 63
     7
421
 16777215
 74
     1
 91
        4
 64
     7
 65
   257
 75
     1
175
     1
 42
1.0
 92
        0
 66
   257
 43
1.0
 76
     1
 77
     6
 78
     2
 67
     7
 79
     5
170
     0
171
     0
290
     0
174
     0
 93
        1
 44
0.0
173
     0
291
     0
 45
0.0
1001
ACAD
1000
AcDbSavedByObjectVersion
1070
     0
  0
VISUALSTYLE
  5
31
102
{ACAD_XDICTIONARY
360
A23
102
}
102
{ACAD_REACTORS
330
2A
102
}
330
2A
100
AcDbVisualStyle
  2

 70
     6
 71
     1
 72
     2
 73
     2
 90
        0
 40
-0.6
 41
-30.0
 62
     5
 63
     7
421
 16777215
 74
     2
 91
        2
 64
     7
 65
   257
 75
     2
175
     1
 42
40.0
 92
        0
 66
   257
 43
1.0
 76
     1
 77
     6
 78
     2
 67
     7
 79
     3
170
     0
171
     0
290
     0
174
     0
 93
        1
 44
0.0
173
     0
291
     0
 45
0.0
1001
ACAD
1000
AcDbSavedByObjectVersion
1070
     0
  0
VISUALSTYLE
  5
30
102
{ACAD_XDICTIONARY
360
A21
102
}
102
{ACAD_REACTORS
330
2A
102
}
330
2A
100
AcDbVisualStyle
  2

 70
     5
 71
     0
 72
     2
 73
     0
 90
        0
 40
-0.6
 41
-30.0
 62
     5
 63
     7
421
 16777215
 74
     1
 91
        4
 64
     7
 65
   257
 75
     1
175
     1
 42
1.0
 92
        0
 66
   257
 43
1.0
 76
     1
 77
     6
 78
     2
 67
     7
 79
     5
170
     0
171
     0
290
     0
174
     0
 93
        1
 44
0.0
173
     0
291
     0
 45
0.0
1001
ACAD
1000
AcDbSavedByObjectVersion
1070
     0
  0
VISUALSTYLE
  5
32
102
{ACAD_XDICTIONARY
360
A25
102
}
102
{ACAD_REACTORS
330
2A
102
}
330
2A
100
AcDbVisualStyle
  2

 70
     7
 71
     1
 72
     0
 73
     1
 90
        0
 40
-0.6
 41
-30.0
 62
     5
 63
     7
421
 16777215
 74
     0
 91
        4
 64
     7
 65
   257
 75
     1
175
     1
 42
1.0
 92
        8
 66
     7
 43
1.0
 76
     1
 77
     6
 78
     2
 67
     7
 79
     5
170
     0
171
     0
290
     0
174
     0
 93
        1
 44
0.0
173
     0
291
     1
 45
0.0
1001
ACAD
1000
AcDbSavedByObjectVersion
1070
     0
  0
VISUALSTYLE
  5
36
102
{ACAD_XDICTIONARY
360
A2D
102
}
102
{ACAD_REACTORS
330
2A
102
}
330
2A
100
AcDbVisualStyle
  2

 70
    12
 71
     2
 72
     2
 73
     0
 90
        0
 40
-0.6
 41
-30.0
 62
     5
 63
     7
421
 16777215
 74
     1
 91
        4
 64
     7
 65
   257
 75
     1
175
     1
 42
1.0
 92
        8
 66
     7
 43
1.0
 76
     1
 77
     6
 78
     2
 67
     7
 79
     5
170
     0
171
     0
290
     0
174
     0
 93
        1
 44
50.0
173
     0
291
     1
 45
0.0
1001
ACAD
1000
AcDbSavedByObjectVersion
1070
     0
  0
VISUALSTYLE
  5
3A
102
{ACAD_XDICTIONARY
360
A35
102
}
102
{ACAD_REACTORS
330
2A
102
}
330
2A
100
AcDbVisualStyle
  2

 70
    16
 71
     2
 72
     2
 73
     3
 90
        0
 40
-0.6
 41
-30.0
 62
     5
 63
     8
421
  8421504
 74
     1
 91
        4
 64
     7
 65
   257
 75
     1
175
     1
 42
1.0
 92
        8
 66
     8
424
  8421504
 43
1.0
 76
     1
 77
     6
 78
     2
 67
     7
 79
     5
170
     0
171
     0
290
     0
174
     0
 93
        1
 44
0.0
173
     0
291
     1
 45
0.0
1001
ACAD
1000
AcDbSavedByObjectVersion
1070
     0
  0
VISUALSTYLE
  5
34
102
{ACAD_XDICTIONARY
360
A29
102
}
102
{ACAD_REACTORS
330
2A
102
}
330
2A
100
AcDbVisualStyle
  2

 70
     9
 71
     3
 72
     2
 73
     0
 90
        0
 40
-0.6
 41
-30.0
 62
     5
 63
     7
421
 16777215
 74
     2
 91
        2
 64
     7
 65
   257
 75
     1
175
     1
 42
40.0
 92
        8
 66
     7
 43
1.0
 76
     1
 77
     6
 78
     2
 67
     7
 79
     3
170
     0
171
     0
290
     0
174
     0
 93
        1
 44
0.0
173
     0
291
     0
 45
0.0
1001
ACAD
1000
AcDbSavedByObjectVersion
1070
     0
  0
VISUALSTYLE
  5
35
102
{ACAD_XDICTIONARY
360
A2B
102
}
102
{ACAD_REACTORS
330
2A
102
}
330
2A
100
AcDbVisualStyle
  2

 70
    11
 71
     2
 72
     2
 73
     0
 90
        0
 40
-0.6
 41
-30.0
 62
     5
 63
     7
421
 16777215
 74
     1
 91
        4
 64
     7
 65
   257
 75
     1
175
     1
 42
1.0
 92
        8
 66
     7
 43
1.0
 76
     1
 77
     6
 78
     2
 67
     7
 79
     5
170
     0
171
     0
290
     0
174
     0
 93
        1
 44
-50.0
173
     0
291
     1
 45
0.0
1001
ACAD
1000
AcDbSavedByObjectVersion
1070
     0
  0
VISUALSTYLE
  5
1AC
102
{ACAD_XDICTIONARY
360
A4C
102
}
102
{ACAD_REACTORS
330
2A
102
}
330
2A
100
AcDbVisualStyle
  2
EdgeColorOff
 70
    22
 71
     2
 72
     2
 73
     0
 90
        0
 40
-0.6
 41
-30.0
 62
     5
 63
     7
421
 16777215
 74
     1
 91
        4
 64
     7
 65
   257
 75
     1
175
     1
 42
1.0
 92
        8
 66
     7
 43
1.0
 76
     1
 77
     6
 78
     2
 67
     7
 79
     5
170
     0
171
     0
290
     0
174
     0
 93
        1
 44
0.0
173
     0
291
     1
 45
0.0
1001
ACAD
1000
AcDbSavedByObjectVersion
1070
     0
  0
VISUALSTYLE
  5
39
102
{ACAD_XDICTIONARY
360
A33
102
}
102
{ACAD_REACTORS
330
2A
102
}
330
2A
100
AcDbVisualStyle
  2

 70
    15
 71
     2
 72
     2
 73
     0
 90
        0
 40
-0.6
 41
-30.0
 62
     5
 63
     7
421
 16777215
 74
     1
 91
        4
 64
     7
 65
   257
 75
     1
175
     1
 42
1.0
 92
        8
 66
     7
 43
1.0
 76
     1
 77
     6
 78
     2
 67
     7
 79
     5
170
     0
171
     0
290
     0
174
     0
 93
        1
 44
0.0
173
     0
291
     1
 45
0.0
1001
ACAD
1000
AcDbSavedByObjectVersion
1070
     0
  0
VISUALSTYLE
  5
2B
102
{ACAD_XDICTIONARY
360
A17
102
}
102
{ACAD_REACTORS
330
2A
102
}
330
2A
100
AcDbVisualStyle
  2

 70
     0
 71
     2
 72
     1
 73
     1
 90
        2
 40
-0.6
 41
30.0
 62
     5
 63
     7
421
 16777215
 74
     0
 91
        4
 64
     7
 65
   257
 75
     1
175
     1
 42
1.0
 92
        8
 66
     7
 43
1.0
 76
     1
 77
     6
 78
     2
 67
     7
 79
     5
170
     0
171
     0
290
     0
174
     0
 93
       13
 44
0.0
173
     0
291
     1
 45
0.0
1001
ACAD
1000
AcDbSavedByObjectVersion
1070
     0
  0
VISUALSTYLE
  5
2C
102
{ACAD_XDICTIONARY
360
A19
102
}
102
{ACAD_REACTORS
330
2A
102
}
330
2A
100
AcDbVisualStyle
  2

 70
     1
 71
     2
 72
     1
 73
     1
 90
        2
 40
-0.6
 41
30.0
 62
     5
 63
     7
421
 16777215
 74
     1
 91
        4
 64
     7
 65
   257
 75
     1
175
     1
 42
1.0
 92
        0
 66
   257
 43
1.0
 76
     1
 77
     6
 78
     2
 67
     7
 79
     5
170
     0
171
     0
290
     0
174
     0
 93
       13
 44
0.0
173
     0
291
     1
 45
0.0
1001
ACAD
1000
AcDbSavedByObjectVersion
1070
     0
  0
VISUALSTYLE
  5
2D
102
{ACAD_XDICTIONARY
360
A1B
102
}
102
{ACAD_REACTORS
330
2A
102
}
330
2A
100
AcDbVisualStyle
  2

 70
     2
 71
     2
 72
     2
 73
     1
 90
        2
 40
-0.6
 41
30.0
 62
     5
 63
     7
421
 16777215
 74
     0
 91
        4
 64
     7
 65
   257
 75
     1
175
     1
 42
1.0
 92
        0
 66
     7
 43
1.0
 76
     1
 77
     6
 78
     2
 67
     7
 79
     5
170
     0
171
     0
290
     0
174
     0
 93
       13
 44
0.0
173
     0
291
     1
 45
0.0
1001
ACAD
1000
AcDbSavedByObjectVersion
1070
     0
  0
VISUALSTYLE
  5
2E
102
{ACAD_XDICTIONARY
360
A1D
102
}
102
{ACAD_REACTORS
330
2A
102
}
330
2A
100
AcDbVisualStyle
  2

 70
     3
 71
     2
 72
     2
 73
     1
 90
        2
 40
-0.6
 41
30.0
 62
     5
 63
     7
421
 16777215
 74
     1
 91
        4
 64
     7
 65
   257
 75
     1
175
     1
 42
1.0
 92
        0
 66
   257
 43
1.0
 76
     1
 77
     6
 78
     2
 67
     7
 79
     5
170
     0
171
     0
290
     0
174
     0
 93
       13
 44
0.0
173
     0
291
     1
 45
0.0
1001
ACAD
1000
AcDbSavedByObjectVersion
1070
     0
  0
VISUALSTYLE
  5
1A4
102
{ACAD_XDICTIONARY
360
A3C
102
}
102
{ACAD_REACTORS
330
2A
102
}
330
2A
100
AcDbVisualStyle
  2
Hidden
 70
     6
 71
     1
 72
     2
 73
     2
 90
        0
 40
-0.6
 41
-30.0
 62
     5
 63
     7
421
 16777215
 74
     2
 91
        2
 64
     7
 65
   257
 75
     2
175
     1
 42
40.0
 92
        0
 66
   257
 43
1.0
 76
     1
 77
     6
 78
     2
 67
     7
 79
     3
170
     0
171
     0
290
     0
174
     0
 93
        1
 44
0.0
173
     0
291
     0
 45
0.0
1001
ACAD
1000
AcDbSavedByObjectVersion
1070
     0
  0
VISUALSTYLE
  5
1AA
102
{ACAD_XDICTIONARY
360
A48
102
}
102
{ACAD_REACTORS
330
2A
102
}
330
2A
100
AcDbVisualStyle
  2
JitterOff
 70
    20
 71
     2
 72
     2
 73
     0
 90
        0
 40
-0.6
 41
-30.0
 62
     5
 63
     7
421
 16777215
 74
     1
 91
        4
 64
     7
 65
   257
 75
     1
175
     1
 42
1.0
 92
       10
 66
     7
 43
1.0
 76
     1
 77
     6
 78
     2
 67
     7
 79
     5
170
     0
171
     0
290
     0
174
     0
 93
        1
 44
0.0
173
     0
291
     1
 45
0.0
1001
ACAD
1000
AcDbSavedByObjectVersion
1070
     0
  0
VISUALSTYLE
  5
38
102
{ACAD_XDICTIONARY
360
A31
102
}
102
{ACAD_REACTORS
330
2A
102
}
330
2A
100
AcDbVisualStyle
  2

 70
    14
 71
     2
 72
     2
 73
     0
 90
        0
 40
-0.6
 41
-30.0
 62
     5
 63
     7
421
 16777215
 74
     1
 91
        4
 64
     7
 65
   257
 75
     7
175
     7
 42
1.0
 92
        8
 66
     7
 43
1.0
 76
     1
 77
     6
 78
     2
 67
     7
 79
     5
170
     0
171
     0
290
     0
174
     0
 93
        1
 44
0.0
173
     0
291
     1
 45
0.0
1001
ACAD
1000
AcDbSavedByObjectVersion
1070
     0
  0
VISUALSTYLE
  5
1AB
102
{ACAD_XDICTIONARY
360
A4A
102
}
102
{ACAD_REACTORS
330
2A
102
}
330
2A
100
AcDbVisualStyle
  2
OverhangOff
 70
    21
 71
     2
 72
     2
 73
     0
 90
        0
 40
-0.6
 41
-30.0
 62
     5
 63
     7
421
 16777215
 74
     1
 91
        4
 64
     7
 65
   257
 75
     1
175
     1
 42
1.0
 92
        9
 66
     7
 43
1.0
 76
     1
 77
     6
 78
     2
 67
     7
 79
     5
170
     0
171
     0
290
     0
174
     0
 93
        1
 44
0.0
173
     0
291
     1
 45
0.0
1001
ACAD
1000
AcDbSavedByObjectVersion
1070
     0
  0
VISUALSTYLE
  5
33
102
{ACAD_XDICTIONARY
360
A27
102
}
102
{ACAD_REACTORS
330
2A
102
}
330
2A
100
AcDbVisualStyle
  2

 70
     8
 71
     2
 72
     2
 73
     0
 90
        0
 40
-0.6
 41
-30.0
 62
     5
 63
     7
421
 16777215
 74
     1
 91
        0
 64
     7
 65
   257
 75
     1
175
     1
 42
1.0
 92
        8
 66
     8
424
  7895160
 43
1.0
 76
     1
 77
     6
 78
     2
 67
     7
 79
     5
170
     0
171
     0
290
     0
174
     0
 93
       13
 44
0.0
173
     0
291
     0
 45
0.0
1001
ACAD
1000
AcDbSavedByObjectVersion
1070
     0
  0
VISUALSTYLE
  5
1A9
102
{ACAD_XDICTIONARY
360
A46
102
}
102
{ACAD_REACTORS
330
2A
102
}
330
2A
100
AcDbVisualStyle
  2
Shaded
 70
    27
 71
     2
 72
     2
 73
     1
 90
        2
 40
-0.6
 41
30.0
 62
     5
 63
     7
421
 16777215
 74
     0
 91
        4
 64
     7
 65
   257
 75
     1
175
     1
 42
1.0
 92
        8
 66
   257
 43
1.0
 76
     1
 77
     6
 78
     2
 67
     8
425
  7895160
 79
     3
170
     0
171
     0
290
     0
174
     0
 93
        5
 44
0.0
173
     0
291
     0
 45
0.0
1001
ACAD
1000
AcDbSavedByObjectVersion
1070
     0
  0
VISUALSTYLE
  5
1A8
102
{ACAD_XDICTIONARY
360
A44
102
}
102
{ACAD_REACTORS
330
2A
102
}
330
2A
100
AcDbVisualStyle
  2
Shaded with edges
 70
    26
 71
     2
 72
     2
 73
     1
 90
        2
 40
-0.6
 41
30.0
 62
     5
 63
     7
421
 16777215
 74
     1
 91
       10
 64
     7
 65
   257
 75
     2
175
     1
 42
1.0
 92
        8
 66
   257
 43
1.0
 76
     1
 77
     6
 78
     2
 67
     7
 79
     3
170
     0
171
     0
290
     0
174
     0
 93
        5
 44
0.0
173
     0
291
     0
 45
0.0
1001
ACAD
1000
AcDbSavedByObjectVersion
1070
     0
  0
VISUALSTYLE
  5
1A5
102
{ACAD_XDICTIONARY
360
A3E
102
}
102
{ACAD_REACTORS
330
2A
102
}
330
2A
100
AcDbVisualStyle
  2
Shades of Gray
 70
    23
 71
     2
 72
     2
 73
     3
 90
        0
 40
-0.6
 41
-30.0
 62
     5
 63
     7
421
 16777215
 74
     2
 91
        2
 64
     7
 65
     7
 75
     1
175
     1
 42
40.0
 92
        8
 66
     7
 43
1.0
 76
     1
 77
     6
 78
     2
 67
     7
 79
     3
170
     0
171
     0
290
     0
174
     0
 93
        1
 44
0.0
173
     0
291
     0
 45
0.0
1001
ACAD
1000
AcDbSavedByObjectVersion
1070
     0
  0
VISUALSTYLE
  5
1A6
102
{ACAD_XDICTIONARY
360
A40
102
}
102
{ACAD_REACTORS
330
2A
102
}
330
2A
100
AcDbVisualStyle
  2
Sketchy
 70
    24
 71
     1
 72
     2
 73
     2
 90
        0
 40
-0.6
 41
-30.0
 62
     5
 63
     7
421
 16777215
 74
     2
 91
        2
 64
     7
 65
     7
 75
     1
175
     1
 42
40.0
 92
       11
 66
     7
 43
1.0
 76
     1
 77
     6
 78
     2
 67
     7
 79
     6
170
     0
171
     0
290
     0
174
     0
 93
        1
 44
0.0
173
     0
291
     0
 45
0.0
1001
ACAD
1000
AcDbSavedByObjectVersion
1070
     0
  0
VISUALSTYLE
  5
37
102
{ACAD_XDICTIONARY
360
A2F
102
}
102
{ACAD_REACTORS
330
2A
102
}
330
2A
100
AcDbVisualStyle
  2

 70
    13
 71
     2
 72
     2
 73
     0
 90
        0
 40
-0.6
 41
-30.0
 62
     5
 63
     7
421
 16777215
 74
     1
 91
        4
 64
     7
 65
   257
 75
     1
175
     1
 42
1.0
 92
       12
 66
     7
 43
1.0
 76
     1
 77
     6
 78
     2
 67
     7
 79
     5
170
     0
171
     0
290
     0
174
     0
 93
        1
 44
0.0
173
     0
291
     1
 45
0.0
1001
ACAD
1000
AcDbSavedByObjectVersion
1070
     0
  0
VISUALSTYLE
  5
1A3
102
{ACAD_XDICTIONARY
360
A3A
102
}
102
{ACAD_REACTORS
330
2A
102
}
330
2A
100
AcDbVisualStyle
  2
Wireframe
 70
     5
 71
     0
 72
     2
 73
     0
 90
        0
 40
-0.6
 41
-30.0
 62
     5
 63
     7
421
 16777215
 74
     1
 91
        4
 64
     7
 65
   257
 75
     1
175
     1
 42
1.0
 92
        0
 66
   257
 43
1.0
 76
     1
 77
     6
 78
     2
 67
     7
 79
     3
170
     0
171
     0
290
     0
174
     0
 93
        1
 44
0.0
173
     0
291
     0
 45
0.0
1001
ACAD
1000
AcDbSavedByObjectVersion
1070
     0
  0
VISUALSTYLE
  5
1A7
102
{ACAD_XDICTIONARY
360
A42
102
}
102
{ACAD_REACTORS
330
2A
102
}
330
2A
100
AcDbVisualStyle
  2
X-Ray
 70
    25
 71
     2
 72
     2
 73
     1
 90
        1
 40
0.5
 41
-30.0
 62
     5
 63
     7
421
 16777215
 74
     1
 91
        0
 64
     7
 65
   257
 75
     1
175
     1
 42
1.0
 92
        8
 66
     7
 43
1.0
 76
     1
 77
     6
 78
     2
 67
     7
 79
     3
170
     0
171
     0
290
     0
174
     0
 93
       13
 44
0.0
173
     0
291
     0
 45
0.0
1001
ACAD
1000
AcDbSavedByObjectVersion
1070
     0
  0
DICTIONARYVAR
  5
94E
102
{ACAD_REACTORS
330
94B
102
}
330
94B
100
DictionaryVariables
280
     0
  1
1:1
  0
DICTIONARYVAR
  5
94D
102
{ACAD_REACTORS
330
94B
102
}
330
94B
100
DictionaryVariables
280
     0
  1
STANDARD
  0
DICTIONARYVAR
  5
94C
102
{ACAD_REACTORS
330
94B
102
}
330
94B
100
DictionaryVariables
280
     0
  1
STANDARD
  0
DICTIONARY
  5
940
330
22
100
AcDbDictionary
280
     1
281
     1
  3
ADSK_XREC_LAYOUTTHUMBNAIL
360
941
  0
DICTIONARY
  5
194
330
193
100
AcDbDictionary
280
     1
281
     1
  3
ACAD_XREC_ROUNDTRIP
360
A38
  3
BUMPTILE
360
196
  3
DIFFUSETILE
360
195
  3
OPACITYTILE
360
199
  3
REFLECTIONTILE
360
198
  3
REFRACTIONTILE
360
19A
  3
SPECULARTILE
360
197
  0
DICTIONARY
  5
18C
330
18B
100
AcDbDictionary
280
     1
281
     1
  3
ACAD_XREC_ROUNDTRIP
360
A37
  3
BUMPTILE
360
18E
  3
DIFFUSETILE
360
18D
  3
OPACITYTILE
360
191
  3
REFLECTIONTILE
360
190
  3
REFRACTIONTILE
360
192
  3
SPECULARTILE
360
18F
  0
DICTIONARY
  5
19C
330
19B
100
AcDbDictionary
280
     1
281
     1
  3
ACAD_XREC_ROUNDTRIP
360
A39
  3
BUMPTILE
360
19E
  3
DIFFUSETILE
360
19D
  3
OPACITYTILE
360
1A1
  3
REFLECTIONTILE
360
1A0
  3
REFRACTIONTILE
360
1A2
  3
SPECULARTILE
360
19F
  0
DICTIONARY
  5
A0D
330
1AE
100
AcDbDictionary
280
     1
281
     1
  3
ACAD_ROUNDTRIP_2008_TABLESTYLE_CELLSTYLEMAP
360
A0E
  3
ACAD_XREC_ROUNDTRIP
360
A4E
  0
DICTIONARY
  5
A1F
330
2F
100
AcDbDictionary
280
     1
281
     1
  3
ACAD_XREC_ROUNDTRIP
360
A20
  0
DICTIONARY
  5
A23
330
31
100
AcDbDictionary
280
     1
281
     1
  3
ACAD_XREC_ROUNDTRIP
360
A24
  0
DICTIONARY
  5
A21
330
30
100
AcDbDictionary
280
     1
281
     1
  3
ACAD_XREC_ROUNDTRIP
360
A22
  0
DICTIONARY
  5
A25
330
32
100
AcDbDictionary
280
     1
281
     1
  3
ACAD_XREC_ROUNDTRIP
360
A26
  0
DICTIONARY
  5
A2D
330
36
100
AcDbDictionary
280
     1
281
     1
  3
ACAD_XREC_ROUNDTRIP
360
A2E
  0
DICTIONARY
  5
A35
330
3A
100
AcDbDictionary
280
     1
281
     1
  3
ACAD_XREC_ROUNDTRIP
360
A36
  0
DICTIONARY
  5
A29
330
34
100
AcDbDictionary
280
     1
281
     1
  3
ACAD_XREC_ROUNDTRIP
360
A2A
  0
DICTIONARY
  5
A2B
330
35
100
AcDbDictionary
280
     1
281
     1
  3
ACAD_XREC_ROUNDTRIP
360
A2C
  0
DICTIONARY
  5
A4C
330
1AC
100
AcDbDictionary
280
     1
281
     1
  3
ACAD_XREC_ROUNDTRIP
360
A4D
  0
DICTIONARY
  5
A33
330
39
100
AcDbDictionary
280
     1
281
     1
  3
ACAD_XREC_ROUNDTRIP
360
A34
  0
DICTIONARY
  5
A17
330
2B
100
AcDbDictionary
280
     1
281
     1
  3
ACAD_XREC_ROUNDTRIP
360
A18
  0
DICTIONARY
  5
A19
330
2C
100
AcDbDictionary
280
     1
281
     1
  3
ACAD_XREC_ROUNDTRIP
360
A1A
  0
DICTIONARY
  5
A1B
330
2D
100
AcDbDictionary
280
     1
281
     1
  3
ACAD_XREC_ROUNDTRIP
360
A1C
  0
DICTIONARY
  5
A1D
330
2E
100
AcDbDictionary
280
     1
281
     1
  3
ACAD_XREC_ROUNDTRIP
360
A1E
  0
DICTIONARY
  5
A3C
330
1A4
100
AcDbDictionary
280
     1
281
     1
  3
ACAD_XREC_ROUNDTRIP
360
A3D
  0
DICTIONARY
  5
A48
330
1AA
100
AcDbDictionary
280
     1
281
     1
  3
ACAD_XREC_ROUNDTRIP
360
A49
  0
DICTIONARY
  5
A31
330
38
100
AcDbDictionary
280
     1
281
     1
  3
ACAD_XREC_ROUNDTRIP
360
A32
  0
DICTIONARY
  5
A4A
330
1AB
100
AcDbDictionary
280
     1
281
     1
  3
ACAD_XREC_ROUNDTRIP
360
A4B
  0
DICTIONARY
  5
A27
330
33
100
AcDbDictionary
280
     1
281
     1
  3
ACAD_XREC_ROUNDTRIP
360
A28
  0
DICTIONARY
  5
A46
330
1A9
100
AcDbDictionary
280
     1
281
     1
  3
ACAD_XREC_ROUNDTRIP
360
A47
  0
DICTIONARY
  5
A44
330
1A8
100
AcDbDictionary
280
     1
281
     1
  3
ACAD_XREC_ROUNDTRIP
360
A45
  0
DICTIONARY
  5
A3E
330
1A5
100
AcDbDictionary
280
     1
281
     1
  3
ACAD_XREC_ROUNDTRIP
360
A3F
  0
DICTIONARY
  5
A40
330
1A6
100
AcDbDictionary
280
     1
281
     1
  3
ACAD_XREC_ROUNDTRIP
360
A41
  0
DICTIONARY
  5
A2F
330
37
100
AcDbDictionary
280
     1
281
     1
  3
ACAD_XREC_ROUNDTRIP
360
A30
  0
DICTIONARY
  5
A3A
330
1A3
100
AcDbDictionary
280
     1
281
     1
  3
ACAD_XREC_ROUNDTRIP
360
A3B
  0
DICTIONARY
  5
A42
330
1A7
100
AcDbDictionary
280
     1
281
     1
  3
ACAD_XREC_ROUNDTRIP
360
A43
  0
XRECORD
  5
941
102
{ACAD_REACTORS
330
940
102
}
330
940
100
AcDbXrecord
280
     1
310
280000000001000079000000010008000000000000790000000000000000000000010000000000003028210000000000C8C8C8000000000000000000000000000000000000000000000000000000000000000000330000006600000099000000CC000000FF00000000330000333300006633000099330000CC330000FF3300
310
0000660000336600006666000099660000CC660000FF66000000990000339900006699000099990000CC990000FF99000000CC000033CC000066CC000099CC0000CCCC0000FFCC000000FF000033FF000066FF000099FF0000CCFF0000FFFF000000003300330033006600330099003300CC003300FF003300003333003333
310
33006633330099333300CC333300FF33330000663300336633006666330099663300CC663300FF66330000993300339933006699330099993300CC993300FF99330000CC330033CC330066CC330099CC3300CCCC3300FFCC330000FF330033FF330066FF330099FF3300CCFF3300FFFF330000006600330066006600660099
310
006600CC006600FF00660000336600333366006633660099336600CC336600FF33660000666600336666006666660099666600CC666600FF66660000996600339966006699660099996600CC996600FF99660000CC660033CC660066CC660099CC6600CCCC6600FFCC660000FF660033FF660066FF660099FF6600CCFF6600
310
FFFF660000009900330099006600990099009900CC009900FF00990000339900333399006633990099339900CC339900FF33990000669900336699006666990099669900CC669900FF66990000999900339999006699990099999900CC999900FF99990000CC990033CC990066CC990099CC9900CCCC9900FFCC990000FF99
310
0033FF990066FF990099FF9900CCFF9900FFFF99000000CC003300CC006600CC009900CC00CC00CC00FF00CC000033CC003333CC006633CC009933CC00CC33CC00FF33CC000066CC003366CC006666CC009966CC00CC66CC00FF66CC000099CC003399CC006699CC009999CC00CC99CC00FF99CC0000CCCC0033CCCC0066CC
310
CC0099CCCC00CCCCCC00FFCCCC0000FFCC0033FFCC0066FFCC0099FFCC00CCFFCC00FFFFCC000000FF003300FF006600FF009900FF00CC00FF00FF00FF000033FF003333FF006633FF009933FF00CC33FF00FF33FF000066FF003366FF006666FF009966FF00CC66FF00FF66FF000099FF003399FF006699FF009999FF00CC
310
99FF00FF99FF0000CCFF0033CCFF0066CCFF0099CCFF00CCCCFF00FFCCFF0000FFFF0033FFFF0066FFFF0099FFFF00CCFFFF00FFFFFF00000000000D0D0D001A1A1A00282828003535350043434300505050005D5D5D006B6B6B00787878008686860093939300A1A1A100AEAEAE00BBBBBB00C9C9C900D6D6D600E4E4E400
310
F1F1F100FFFFFF000000000000000000000000000000000000000000000000000000000000000000000000000000000000000000000000000000000000000000000000000000000000000000000000000000000000000000000000000000000000000000000000000000000000000000000000000000000000000000000000
310
00000000000000000000000000000000000000000000000000000000000000000000000000000000000000000000000000000000000000000000000000000000000000000000000000000000000000000000000000000000000000000000000000000000000000000000000000000000000000000000000000000000000000
310
00000000000000000000000000000000000000000000000000000000000000000000000000000000000000000000000000000000000000000000000000000000000000000000000000000000000000000000000000000000000000000000000000000000000000000000000000000000000000000000000000000000000000
310
0000000000000000000000000000000000000000000000000000000000000000000000000000000000000000E200000000000000000000000000000000000000000000000000000000000000000000000000000000000000000000000000000000000000000000000000000000000000000000E20000000000000000000000
310
00000000000000000000000000000000000000000000000000000000000000000000000000000000000000000000000000000000000000000000000000000000000000000000000000000000000000000000000000000000000000000000000000000000000000000000000000000000000000000000000000000000000000
310
00000000000000000000000000000000000000000000000000000000000000000000000000000000000000000000E200000000000000000000000000000000000000000000000000000000000000000000000000000000000000000000000000000000000000000000000000000000000000000000E2000000000000000000
310
00000000000000000000000000000000000000000000000000000000000000000000000000000000000000000000000000000000000000000000000000000000000000000000000000000000000000000000000000000000000000000000000000000000000000000000000000000000000000000000000000000000000000
310
000000000000000000000000000000000000000000000000000000000000000000000000000000000000000000000000E20000000000000000000000000000000000000000000000000000000000000000E2000000000000000000000000000000E2000000000000000000000000000000000000000000E200000000000000
310
00000000000000000000000000000000000000000000000000000000000000000000000000000000000000000000000000000000000000000000000000000000000000000000000000000000000000000000000000000000000000000000000000000000000000000000000000000000000000000000000000000000000000
310
0000000000000000000000000000000000000000000000000000000000000000000000000000000000000000000000000000E20000000000000000000000000000000000000000000000000000000000000000E2000000000000000000000000000000E2000000000000000000000000000000000000000000E20000000000
310
00000000000000000000000000000000000000000000000000000000000000000000000000000000000000000000000000000000000000000000000000000000000000000000000000000000000000000000000000000000000000000000000000000000000000000000000000000000000000000000000000000000000000
310
00000000000000000000000000000000000000000000000000000000000000000000000000000000000000000000000000000000E20000E2E2E20000000000000000000000000000E2E20000E2E2E2E2E2E2000000E200E2E2E200E2E2E200E200E2E2E200E2000000000000000000000000000000E2E2E2000000E2000000
310
00000000000000000000000000000000000000000000000000000000000000000000000000000000000000000000000000000000000000000000000000000000000000000000000000000000000000000000000000000000000000000000000000000000000000000000000000000000000000000000000000000000000000
310
000000000000000000000000000000000000000000000000000000000000000000000000000000000000000000000000000000000000E2E2E2E2E2E2E2E2E2E2E2E2E2E2E2E2E2E200000000E200E200E2E200E2000000E2000000E200E200E2000000E200E200E2000000E2E2E2E2E2E2E2E2E2E2E2E2E2E2E2E2E2E2E200
310
00000000000000000000000000000000000000000000000000000000000000000000000000000000000000000000000000000000000000000000000000000000000000000000000000000000000000000000000000000000000000000000000000000000000000000000000000000000000000000000000000000000000000
310
0000000000000000000000000000000000000000000000000000000000000000000000000000000000000000000000000000000000000000E20000E2E2E20000000000000000000000000000E2E2E20000E2E2E200E2000000E20000E2E20000E2E2000000E2E2E200E2000000000000000000000000000000E2E2E2E20000
310
E2000000000000000000000000000000000000000000000000000000000000000000000000000000000000000000000000000000000000000000000000000000000000000000000000000000000000000000000000000000000000000000000000000000000000000000000000000000000000000000000000000000000000
310
00000000000000000000000000000000000000000000000000000000000000000000000000000000000000000000000000000000000000000000E200000000000000000000000000000000000000E200E200E200E2E200E2000000E200E200E200E200E2000000E2000000E200000000000000000000000000000000000000
310
0000E200000000000000000000000000000000000000000000000000000000000000000000000000000000000000000000000000000000000000000000000000000000000000000000000000000000000000000000000000000000000000000000000000000000000000000000000000000000000000000000000000000000
310
000000000000000000000000000000000000000000000000000000000000000000000000000000000000000000000000000000000000000000000000E200000000000000000000000000000000000000E2E2E200E2E2E2E2E2E2000000E200E2E2E200E2E2E200000000E2E200E20000000000000000000000000000000000
310
00000000E20000000000000000000000000000000000000000000000000000000000000000000000000000000000000000000000000000000000000000000000000000000000000000000000000000000000000000000000000000000000000000000000000000000000000000000000000000000000000000000000000000
310
0000000000000000000000000000000000000000000000000000000000000000000000000000000000000000000000000000000000000000000000000000E200000000000000000000000000000000000000000000000000000000000000000000000000000000000000000000000000000000000000000000000000000000
310
000000000000E2000000000000000000000000000000000000000000000000000000000000000000000000000000000000000000000000000000000000000000000000000000000000000000000000000000000000000000000000000000000000000000000000000000000000000000000000000000000000000000000000
310
00000000000000000000000000000000000000000000000000000000000000000000000000000000000000000000000000000000000000000000000000000000E20000000000000000000000000000000000000000000000000000000000000000000000000000000000000000000000000000000000000000000000000000
310
0000000000000000E200000000000000000000000000000000000000000000000000000000000000000000000000000000000000000000000000000000000000000000000000000000000000000000000000000000000000000000000000000000000000000000000000000000000000000000000000000000000000000000
310
000000000000000000000000000000000000000000000000000000000000000000000000000000000000000000000000000000000000000000000000000000000000E200000000000000000000000000000000000000000000000000000000E200000000000000000000000000000000000000000000000000000000000000
310
00000000000000000000E20000000000000000000000000000000000000000000000000000000000000000000000000000000000000000000000000000000000000000000000000000000000000000000000000000000000000000000000000000000000000000000000000000000000000000000000000000000000000000
310
0000000000000000000000000000000000000000000000000000000000000000000000000000000000000000000000000000000000000000000000000000000000000000E200000000000000000000000000000000000000000000000000000000E20000000000000000000000000000000000000000E20000000000000000
310
000000000000E20000000000E2000000000000000000000000000000000000000000000000000000000000000000000000000000000000000000000000000000000000000000000000000000000000000000000000000000000000000000000000000000000000000000000000000000000000000000000000000000000000
310
00000000000000000000000000000000000000000000000000000000000000000000000000000000000000000000000000000000000000000000000000000000000000000000E200000000000000000000000000000000000000000000000000000000E20000000000000000000000000000000000000000E2000000000000
310
0000000000000000E20000000000E200000000000000000000000000000000000000000000000000000000000000000000000000000000000000000000000000000000000000000000000000000000000000000000000000000000000000000000000000000000000000000000000000000000000000000000000000000000
310
000000000000000000000000000000000000000000000000000000000000000000000000000000000000000000000000000000000000000000000000000000000000000000000000E200000000000000000000000000000000000000000000000000000000E2000000000000E2E2E200E2E20000E2E200000000E20000E200
310
00E2E2E200E200000000E20000000000E20000000000000000000000000000000000000000000000000000000000000000000000000000000000000000000000000000000000000000000000000000000000000000000000000000000000000000000000000000000000000000000000000000000000000000000000000000
310
0000000000000000000000000000000000000000000000000000000000000000000000000000000000000000000000000000000000000000000000000000000000000000000000000000E20000E2E2E20000000000000000000000000000000000E2E2E2000000E20000000000000000E2000000E2000000E2000000E20000
310
E200000000E200000000E200E20000000000E2000000000000000000000000000000000000000000000000000000000000000000000000000000000000000000000000000000000000000000000000000000000000000000000000000000000000000000000000000000000000000000000000000000000000000000000000
310
00000000000000000000000000000000000000000000000000000000000000000000000000000000000000000000000000000000000000000000000000000000000000000000000000000000E2E2E2E2E2E2E2E2E2E2E2E2E2E2E2E2E2E2E2E2E2E2E2E2E2E2E2E2E2E2E2E2E2E2E20000E2E200E2E2E200E2E2E2000000E2
310
0000E20000E2E2E200000000E200E20000000000E200000000000000000000000000000000000000000000000000000000000000000000000000000000000000000000000000000000000000000000000000000000000000000000000000000000000000000000000000000000000000000000000000000000000000000000
310
000000000000000000000000000000000000000000000000000000000000000000000000000000000000000000000000000000000000000000000000000000000000000000000000000000000000E20000E2E2E20000000000000000000000000000000000E2E2E2E20000E2000000000000E200E200E200E200E200E20000
310
00E20000E20000E200000000000000E2E20000000000E20000000000000000000000000000000000000000000000000000000000000000000000000000000000000000000000000000000000000000000000000000000000000000000000000000000000000000000000000000000000000000000000000000000000000000
310
0000000000000000000000000000000000000000000000000000000000000000000000000000000000000000000000000000000000000000000000000000000000000000000000000000000000000000E200000000000000000000000000000000000000000000000000000000E2000000000000E2E2E200E2E2E200E2E2E2
310
000000E20000000000E2E2E2000000E2E2E2E20000000000E2000000000000000000000000000000000000000000000000000000000000000000000000000000000000000000000000000000000000000000000000000000000000000000000000000000000000000000000000000000000000000000000000000000000000
310
00000000000000000000000000000000000000000000000000000000000000000000000000000000000000000000000000000000000000000000000000000000000000000000000000000000000000000000E200000000000000000000000000000000000000000000000000000000E2000000000000000000000000000000
310
0000000000000000000000000000000000000000000000000000E200000000000000000000000000000000000000000000000000000000000000000000000000000000000000000000000000000000000000000000000000000000000000000000000000000000000000000000000000000000000000000000000000000000
310
000000000000000000000000000000000000000000000000000000000000000000000000000000000000000000000000000000000000000000000000000000000000000000000000000000000000000000000000E200000000000000000000000000000000000000000000000000000000E200000000000000000000000000
310
00000000000000000000000000000000000000000000000000000000E20000000000000000000000000000000000000000000000000000000000000000000000000000000000000000000000000000000000000000000000000000000000000000000000000000000000000000000000000000000000000000000000000000
310
0000000000000000000000000000000000000000000000000000000000000000000000000000000000000000000000000000000000000000000000000000000000000000000000000000000000000000000000000000E200000000000000000000000000000000000000000000000000000000E20000000000000000000000
310
000000000000000000000000000000000000000000000000000000000000E2000000000000000000000000000000000000000000000000000000000000000000000000000000000000000000000000000000000000000000000000000000000000000000000000000000000000000000000000000000000000000000000000
310
00000000000000000000000000000000000000000000000000000000000000000000000000000000000000000000000000000000000000000000000000000000000000000000000000000000000000000000000000000000E200000000000000000000000000000000000000000000000000000000E2000000000000000000
310
0000000000000000000000000000000000000000000000000000000000000000E200000000000000000000000000000000000000000000000000000000000000000000000000000000000000000000000000000000000000000000000000000000000000000000000000000000000000000000000000000000000000000000
310
000000000000000000000000000000000000000000000000000000000000000000000000000000000000000000000000000000000000000000000000000000000000000000000000000000000000000000000000000000000000E200000000000000000000000000000000000000000000000000000000E200000000000000
310
00000000000000000000000000000000000000000000000000000000000000000000E20000000000000000000000000000000000000000000000000000000000000000000000000000000000000000000000000000000000000000000000000000000000000000000000000000000000000000000000000000000000000000
310
0000000000000000000000000000000000000000000000000000000000000000000000000000000000000000000000000000000000000000000000000000000000000000000000000000000000000000000000000000000000000000E200000000000000000000000000000000000000000000000000000000E20000000000
310
000000000000000000000000000000000000000000000000000000000000000000000000E2000000000000000000000000000000000000000000000000000000000000000000000000000000000000000000000000000000000000000000000000000000000000000000000000000000000000000000000000000000000000
310
00000000000000000000000000000000000000000000000000000000000000000000000000000000000000000000000000000000000000000000000000000000000000000000000000000000000000000000000000000000000000000000E200000000000000000000000000000000000000000000000000000000E2000000
310
0000000000000000000000000000000000000000000000000000000000000000000000000000E200000000000000000000000000000000000000000000000000000000000000000000000000000000000000000000000000000000000000000000000000000000000000000000000000000000000000000000000000000000
310
0000000000000000000000000000000000000000000000000000000000000000000000000000000000000000000000000000000000000000000000000000000000000000000000000000000000000000000000000000000000000000000000000000000000000000000000000000000000000000000000000000000000E200
310
00000000000000000000000000000000000000000000000000000000000000000000000000000000000000000000000000000000000000000000000000000000000000000000000000000000000000000000000000000000000000000000000000000000000000000000000000000000000000000000000000000000000000
310
00000000000000000000000000000000000000000000000000000000000000000000000000000000000000000000000000E2E2E2E2E2E2E2E2E2E2E2E2E2E2E2E2E2E2E2E2E2E2E2E2E2E2E2E2E2E2E2E2E2E2E2E2E2E2E2E2E2E2E2E2E2E2E2E200E20F0F0F0F0F0F0F0F0F0F0F0F0F0F0F0F0F0F0F0F0F0F0F0F0F0F0F0F
310
E20F0F0F0F0F0F0F0F0F0F0F0F0F0F0F0F0F0F0F0F0F0F0F0F0F0F0F0F0F0F0F0F0F0F0F0F0F0F0F0F0FE2E2E2E2E2E2E2E2E2E2E2E2E2E2E2E2E2E2E2E2E2E2E2E2E2E2E200000000000000000000000000000000000000000000000000000000000000000000000000000000000000000000000000000000000000000000
310
000000000000000000000000000000000000000000000000000000000000000000000000000000000000000000000000000000000000000000E20000000000000000000000000000000000000000E20000000000000000000000000000000000000000000F0000000000000000000000000000000000000000000000000000
310
0000E200000000000000000000000000000000000000000000000000000000000000000000000000000000000F0000000000000000000000000000000000000000E200000000000000000000000000000000000000000000000000000000000000000000000000000000000000000000000000000000000000000000000000
310
0000000000000000000000000000000000000000000000000000000000000000000000000000000000000000000000000000000000000000000000E20000000000000000000000000000000000000000E20000000000000000000000000000000000000000000F000000000000000000000000000000000000000000000000
310
00000000E200000000000000000000000000000000000000000000000000000000000000000000000000000000000F0000000000000000000000000000000000000000E20000000000000000000000000000000000000000000000000000000000000000000000000000000000000000000000000000000000000000000000
310
000000000000000000000000000000000000000000000000000000000000000000000000000000000000000000000000000000000000000000000000E2E2E2000000000000000000000000000000000000E2E2E200000000000000000000000000000000000000000F00000000000000000000000000000000000000000000
310
000000000000E200000000000000000000000000000000000000000000000000000000000000000000000000000000000F00000000000000000000000000000000000000E2E2E20000000000000000000000000000000000000000000000000000000000000000000000000000000000000000000000000000000000000000
310
0000000000000000000000000000000000000000000000000000000000000000000000000000000000000000000000000000000000000000000000000000E2E2E2000000000000000000000000000000000000E2E2E200000000000000000000000000000000000000000F0000000000000000000000000000000000000000
310
000000001F1F1F1F1F1F1F1F00000076767676767676760000007676767676767676000000000000000000000000000000000F00000000000000000000000000000000000000E2E2E2000000000000000000000000000000000000000000000000000000000000000000000000000000000000000000000000000000000000
310
00000000000000000000000000000000000000000000000000000000000000000000000000000000000000000000000000000000000000000000000000000000E2E2E2000000000000000000000000000000000000E2E2E200000000000000000000000000000000000000000F000000000000000000000000000000000000
310
00000000000088888888E288888800000076797979797979760000007679797979797976000000000000000000000000000000000F00000000000000000000000000000000000000E2E2E200000000000000000000000000000000000000000000000000000000000000000000000000000000000000000000000000000000
310
00000000000000000000000000000000000000000000000000000000000000000000000000000000000000000000000000000000000000000000000000000000000000E20000000000000000000000000000000000000000E20000000000000000000000000000000000000000000F00000000000000000000000000000000
310
0000000000000000880000000000008800000076000000000000760000007600000000000076000000000000000000000000000000000F0000000000000000000000000000000000000000E2000000000000000000000000000000000000000000000000000000000000000000000000000000000000000000000000000000
310
000000000000000000000000000000000000000000000000000000000000000000000000000000000000000000000000000000000000000000000000000000000000000000E20000000000000000000000000000000000000000E20000000000000000000000000000000000000000000F0000000000000000000000000000
310
00000000000000000000880000000000008800000076000000000000760000007600000000000076000000000000000000000000000000000F0000000000000000000000000000000000000000E200000000000000000000000000000000000000000000000000000000000000000000000000000000000000000000000000
310
0000000000000000000000000000000000000000000000000000000000000000000000000000000000000000000000000000000000000000000000000000000000000000000000E20000000000000000000000000000000000000000E20000000000000000000000000000000000000000000F000000000000000000000000
310
000000000000000000000000880000000000008800000076000000000000760000007600000000000076000000000000000000000000000000000F0000000000000000000000000000000000000000E20000000000000000000000000000000000000000000000000000000000000000000000000000000000000000000000
310
00000000000000000000000000000000000000000000000000000000000000000000000000000000000000000000000000000000000000000000000000000000000000000000000000E20000000000000000000000000000000000000000E20000000000000000000000000000000000000000000F00000000000000000000
310
0000000000000000000000000000880000000000008800000076000000000000760000007600000000000076000000000000000000000000000000000F0000000000000000000000000000000000000000E2000000000000000000000000000000000000000000000000000000000000000000000000000000000000000000
310
000000000000000000000000000000000000000000000000000000000000000000000000000000000000000000000000000000000000000000000000000000000000000000000000000000E20000000000000000000000000000000000000000E20000000000000000000000000000000000000000000F0000000000000000
310
00000000000000000000000000000000880000000000008800000076000000000000760000007600000000000076000000000000000000000000000000000F0000000000000000000000000000000000000000E200000000000000000000000000000000000000000000000000000000000000000000000000000000000000
310
0000000000000000000000000000000000000000000000000000000000000000000000000000000000000000000000000000000000000000000000000000000000000000000000000000000000E20000000000000000000000000000000000000000E20000000000000000000000000000000000000000000F000000000000
310
0000000000000000000000000000000000008888888888888888000000761F1F00001F1F76000000761F1F1F1F1F1F76000000000000000000000000000000000F0000000000000000000000000000000000000000E20000000000000000000000000000000000000000000000000000000000000000000000000000000000
310
00000000000000000000000000000000000000000000000000000000000000000000000000000000000000000000000000000000000000000000000000000000000000000000000000000000000000E20000000000000000000000000000000000000000E20000000000000000000000000000000000000000000F00000000
310
0000000000000000000000000000000000000000767676767676767600000076767628287676760000007676767676767676000000000000000000000000000000000F000000000000000000000000000000000000000000000000000000000000000000000000000000000000000000000000000000000000000000000000
310
000000000000000000000000000000000000000000000000000000000000000000000000000000000000000000000000000000000000000000000000000000000000000000000000000000000000000000E20000000000000000000000000000000000000000E20000000000000000000000000000000000000000000F0000
310
00000000000000000000000000000000000000000000000000000000000000000000007628287600000000000000000000000000000000000000000000000000000000000F000000000000000000000000000000000000E2000000000000000000000000000000E20000000000000000000000000000000000000000000000
310
0000000000000000000000000000000000000000000000000000000000000000000000000000000000000000000000000000000000000000000000000000000000000000000000000000000000000000000000E20000000000000000000000000000000000000000E20000000000000000000000000000000000000000000F
310
000000000000000000000000000000000000000000000000000000000000000000000000007676767600000000000000000000000000000000000000000000000000000000000F000000000000000000000000000000000000E2000000000000000000000000000000E2000000000000000000000000000000000000000000
310
00000000000000000000000000000000000000000000000000000000000000000000000000000000000000000000000000000000000000000000000000000000000000000000000000000000000000000000000000E20000000000000000000000000000000000000000E20000000000000000000000000000000000000000
310
000F00000000000000000000000000000000000000000000000000E2E2E2E2E2000000000000000000000000000000000000000000000000000000000000000000000000000000000F00000000000000E2000000000000E2000000E20000E20000E2E2E200E20000000000E200000000000000000000000000000000000000
310
000000000000000000000000000000000000000000000000000000000000000000000000000000000000000000000000000000000000000000000000000000000000000000000000000000000000000000000000000000E20000000000000000000000000000000000000000E2000000000000000000000000000000000000
310
0000000F00000000000000000000000000000000000000000000000000E2E2E2E2E2000000000000000000000000000000000000000000000000000000000000000000000000000000000F0000000000E2E2E20000E200E2E2E2000000E20000E20000E200E200000000E20000E20000000000000000000000000000000000
310
0000000000000000000000000000000000000000000000000000000000000000000000000000000000000000000000000000000000000000000000000000000000000000000000000000000000000000000000000000000000E20000000000000000000000000000000000000000E200000000000000000000000000000000
310
00000000000F00000000000000000000000000000000000000000000000000E2E2E2E2E2000000000000000000000000000000000000000000000000000000000000000000000000000000000F000000000000E2E20000E20000E2E2000000E20000E2000000E2E200000000E20000E2000000000000000000000000000000
310
00000000000000000000000000000000000000000000000000000000000000000000000000000000000000000000000000000000000000000000000000000000000000000000000000000000000000000000000000000000000000E20000000000000000000000000000000000000000E20000000000000000000000000000
310
000000000000000F00000000000000000000000000000000000000000000000000E2E2E2E2E2000000000000000000000000000000000000000000000000000000000000000000000000000000000F000000000000E2E2000000E200E2E2000000E20000E20000E200E20000000000E200E200000000000000000000000000
310
000000000000000000000000000000000000000000000000000000000000000000000000000000000000000000000000000000000000000000000000000000000000000000000000000000000000000000000000000000000000000000E2000000000000000000000000000000000000000000000000000000000000000000
310
0000000000000000000F00000000000000000000000000000000000000000000000000E2E2E2E2E2000000000000000000000000000000000000000000000000000000000000000000000000000000000F00000000000000E200E2E2E20000E2000000E20000000000E2E2E2000000E2E2E200E20000000000000000000000
310
0000000000000000000000000000000000000000000000000000000000000000000000000000000000000000000000000000000000000000000000000000000000000000000000000000000000000000000000000000000000000000000000E2000000000000000000000000000000000000E2000000000000000000000000
310
000000E2000000000000000F000000000000000000000000000000000000000000000000000000000000000000000000000000000000000000000000000000000000000000000000000000000000000000000F0000000000000000000000000000000000000000000000000000000000000000000000000000000000000000
310
00000000000000000000000000000000000000000000000000000000000000000000000000000000000000000000000000000000000000000000000000000000000000000000000000000000000000000000000000000000000000000000000000E2000000000000000000000000000000000000E200000000000000000000
310
0000000000E2000000000000000F000000000000000000000000000000000000000000000000000000000000000000000000000000000000000000000000000000000000000000000000000000000000000000000F000000000000000000000000000000000000000000000000000000000000000000000000000000000000
310
000000000000000000000000000000000000000000000000000000000000000000000000000000000000000000000000000000000000000000000000000000000000000000000000000000000000000000000000000000000000000000000000000000E20000000000E2E2E200000000E2E200000000E200E2E2E200E2E2E2
310
00E20000000000E2000000000000000F000000000000000000000000000000000000000000000000000000000000000000000000000000000000000000000000000000000000000000000000000076767676000000000F00000000000000000000000000000000000000000000000000000000000000000000000000000000
310
0000000000000000000000000000000000000000000000000000000000000000000000000000000000000000000000000000000000000000000000000000000000000000000000000000000000000000000000000000000000000000000000000000000000E20000000000E200E20000E2000000E2000000E200E2000000E2
310
00E200000000E20000E2000000000000000F0000000000000000000000E2E2E2E2E2E2E2E2E2E2E2E2E2E2E2E2E2E2E2E2E2E2E20000000000000000000000000000000000000000000000000000000076282876000000000F0000000000000000000000000000000000000000E20000000000000000000000000000000000
310
00000000000000000000000000000000000000000000000000000000000000000000000000000000000000000000000000000000000000000000000000000000000000000000000000000000000000000000000000000000000000000000000000000000000000E20000000000E2E2E20000E200E2E2E2000000E20000E200
310
00E2E2E200000000E20000E2000000000000000F0000000000000000000000E2E2E2E2E2E2E2E2E2E2E2E2E2E2E2E2E2E2E2E2E2E2E20000000000000000000000000000000000000000000000000000000076282876000000000F0000000000000000000000000000000000000000E2000000000000000000000000000000
310
000000000000000000000000000000000000000000000000000000000000000000000000000000000000000000000000000000000000000000000000000000000000000000000000000000000000000000000000000000000000000000000000000000000000000000E20000000000E20000000000E2E200E2000000E200E2
310
00E200E200000000000000E200E2000000000000000F0000000000000000000000E2E2E2E2E2E2E2E2E2E2E2E2E2E2E2E2E2E2E2E2E2E2E20000000000000000000000000000000000000000000000000000000076282876000000000F0000000000000000000000000000000000000000E200000000000000000000000000
310
0000000000000000000000000000000000000000000000000000000000000000000000000000000000000000000000000000000000000000000000000000000000000000000000000000000000000000000000000000000000000000000000000000000000000000000000E2000000000000E2E200E2E2E2E2E2E2000000E2
310
00E2E2E20000E2E2000000E2E2E200E2000000000000000F0000000000000000000000E2E2E2E2E2E2E2E2E2E2E2E2E2E2E2E2E2E2E2E2E2E2E20000000000000000000000000000000000000000000000000076767600000076000000000F0000000000000000000000000000000000000000E20000000000000000000000
310
00000000000000000000000000000000000000000000000000000000000000000000000000000000000000000000000000000000000000000000000000000000000000000000000000000000000000000000000000000000000000000000000000000000000000000000000000E20000000000000000000000000000000000
310
000000000000000000000000000000000000000000000000000F0000000000000000000000E2E2E2E2E2E2E2E2E2E2E2E2E2E2E2E2E2E2E2E2E2E2E20000000000000000000000000000000000000000000000000076282828000076000000000F0000000000000000000000000000000000000000E2000000000000000000
310
000000000000000000000000000000000000000000000000000000000000000000000000000000000000000000000000000000000000000000000000000000000000000000000000000000000000000000000000000000000000000000000000000000000000000000000000000000E2000000000000000000000000000000
310
0000000000000000000000000000000000000000000000000000000F000000000000000000000000000000000000000000000000000000000000000000000000000000000000000000000000000000000000000000000076282828000076000000000F00000000000000000000000000000000000000E2E2E2000000000000
310
0000000000000000000000000000000000000000000000000000000000000000000000000000000000000000000000000000000000000000000000000000000000000000000000000000000000000000000000000000000000000000000000000000000000000000000000000000000000E200000000000000000000000000
310
00000000000000000000000000000000000000000000000000000000000F000000000000000000000000000000000000000000000000000000000000000000000000000000000000000000000000000000000000000000000076767676767676000000000F00000000000000000000000000000000000000E2E2E200000000
310
00000000000000000000000000000000000000000000000000000000000000000000000000000000000000000000000000000000000000000000000000000000000000000000000000000000000000000000000000000000000000000000000000000000000000000000000000000000000000E20000000000000000000000
310
000000000000000000E20000000000000000000000000000000000000000000F000000000000000000000000000000000000000000000000000000000000000000000000000000000000000000000000000000000000000000000000000000000000000000000F00000000000000000000000000000000000000E2E2E20000
310
000000000000000000000000000000000000000000000000000000000000000000000000000000000000000000000000000000000000000000000000000000000000000000000000000000000000000000000000000000000000000000000000000000000000000000000000000000000000000000E2000000000000000000
310
0000000000000000000000E20000000000000000000000000000000000000000000F000000000000000000000000000000000000000000000000000000000000000000000000000000000000000000000000E2E2E2E2E2E2000000000000767676767676000000000F00000000000000000000000000000000000000E2E2E2
310
0000000000000000000000000000000000000000000000000000000000000000000000000000000000000000000000000000000000000000000000000000000000000000000000000000000000000000000000000000000000000000000000000000000000000000000000000000000000000000000000E200000000000000
310
00000000000000000000000000E20000000000000000000000000000000000000000000F000000000000000000000000000000000000000000000000000000000000000000000000000000000000000000000000E2E2E2E2E2E200000000881F768888888876000000000F0000000000000000000000000000000000000000
310
E2000000000000000000000000000000000000000000000000000000000000000000000000000000000000000000000000000000000000000000000000000000000000000000000000000000000000000000000000000000000000000000000000000000000000000000000000000000000000000000000000E20000000000
310
000000000000000000000000000000E20000000000000000000000000000000000000000000F000000000000000000000000000000000000000000000000000000000000000000000000000000000000000000000000E2E2E2E2E2E2000000008800760000000076000000000F000000000000000000000000000000000000
310
0000E2000000000000000000000000000000000000000000000000000000000000000000000000000000000000000000000000000000000000000000000000000000000000000000000000000000000000000000000000000000000000000000000000000000000000000000000000000000000000000000000000E2000000
310
0000000000000000000000000000000000E20000000000000000000000000000000000000000000F000000000000000000000000000000000000000000000000000000000000000000000000000000000000000000000000E2E2E2E2E2E20000000088007600000000E200E2E2E2E2E2E2E2E2E2E2E2E2E2E2E2E2E2E2E2E2
310
E2E2E2E2E2E2E2E2E2E200000000000000000000000000000000000000000000000000000000000000000000000000000000000000000000000000000000000000000000000000000000000000000000000000000000000000000000000000000000000000000000000000000000000000000000000000000000000000E200
310
00000000000000000000000000000000000000E20000000000000000000000000000000000000000000F000000000000000000000000000000000000000000000000000000000000000000000000000000000000000000000000E2E2E2E2E2E2000000008800760000000076000000000F0000000000000000000000000000
310
00000000000000000000000000000000000000000000000000000000000000000000000000000000000000000000000000000000000000000000000000000000000000000000000000000000000000000000000000000000000000000000000000000000000000000000000000000000000000000000000000000000000000
310
E20000000000000000000000000000000000000000E20000000000000000000000000000000000000000000F00000000007600000000000000000000000000000000000000000000000000000000000000000000000000000000000000000000000000000000001F767676767676000000000F000000000000000000000000
310
00000000000000000000000000000000000000000000000000000000000000000000000000000000000000000000000000000000000000000000000000000000000000000000000000000000000000000000000000000000000000000000000000000000000000000000000000000000000000000000000000000000000000
310
0000E20000000000000000000000000000000000000000E20000000000000000000000000000000000000000000F000000001F1F1F0000000000000000000000000000000000000000000000000000000000000000000000000000000000000000000000000000000000000000000000000000000F00000000000000000000
310
00000000000000000000000000000000000000000000000000000000000000000000000000000000000000000000000000000000000000000000000000000000000000000000000000000000000000000000000000000000000000000000000000000000000000000000000000000000000000000000000000000000000000
310
00000000000000000000000000000000000000000000000000E20000000000000000000000000000000000000000000F000000001F001F0000000000000000000000000000000000000000000000000000000000000000000000000000000000000000000000000000000000767676767676000000000F0000000000000000
310
00000000000000000000000000000000000000000000000000000000000000000000000000000000000000000000000000000000000000000000000000000000000000000000000000000000000000000000000000000000000000000000000000000000000000000000000000000000000000000000000000000000000000
310
0000000000E2000000000000000000000000000000E20000000000E20000000000000000000000000000000000000000000F000000001F28281F00000000000000000000000000000000000000000000000000000000000000000000000000000000000000000000000000000076761F1F1F1F76000000000F000000000000
310
00000000000000000000000000000000000000000000000000000000000000000000000000000000000000000000000000000000000000000000000000000000000000000000000000000000000000000000000000000000000000000000000000000000000000000000000000000000000000000000000000000000000000
310
00000000000000E2000000000000000000000000000000E20000000000E20000000000000000000000000000000000000000000F000000001F00001F00000000000000000000000000000000000000000000000000000000000000000000000000000000000000000000000000000076282828000076000000000F00000000
310
000000000000000000000000000000000000000000000000000000000000000000000000000000000000000000000000000000000000000000000000000000000000000000000000000000000000000000000000000000000000000000000000000000000000000000000000000000000000000000000000E20000E2E2E200
310
E2E2E2E2E2E2000000E2000000E20000000000E200E2E2E200E20000000000E20000000000000000000000000000000000000000000F000000001F0000001F1F7600000000000000000000000000000000000000000000000000000000000000000000000000000000000000000000000076767600000076000000000F0000
310
0000000000000000000000000000000000000000000000000000000000000000000000000000000000000000000000000000000000000000000000000000000000000000000000000000000000000000000000000000000000000000000000000000000000000000000000000000000000000000000000000000E20000E200
310
0000E200E2E200E2000000E200E2E2E20000E200000000E2000000E20000000000E20000000000000000000000000000000000000000000F000000001F00002828791F00000000000000000000000000000000000000000000000000000000000000000000000000000000000000000000000000007679000076000000000F
310
00000000000000000000000000000000000000000000000000000000000000000000000000000000000000000000000000000000000000000000000000000000000000000000000000000000000000000000000000000000000000000000000000000000000000000000000000000000000000000000000000000000E20000
310
00E20000E200E2E200E2000000E20000E2E20000E20000000000E20000E200000000E2E2E200000000000000000000000000000000000000000F000000001F1F1F1F1F1F7600000000000000000000000000000000000000000000000000000000000000000000000000000000000000000000000000000076282876000000
310
000F00000000000000000000000000000000000000000000000000000000000000000000000000000000000000000000000000000000000000000000000000000000000000000000000000000000000000000000000000000000000000000000000000000000000000000000000000000000000000000000000000000000E2
310
0000E200E200E200E2E200E2000000E20000E2E2000000E2000000E200E200E200000000E2E2E200000000000000000000000000000000000000000F00000000000000000000000000000000000000000000000000000000000000000000000000000000000000000000000000000000000000000000000000007628287600
310
0000000F000000000000000000000000000000000000000000000000000000000000000000000000000000000000000000000000000000000000000000000000000000000000000000000000000000000000000000000000000000000000000000000000000000000000000000000000000000000000000000000000000000
310
00000000E2E2E200E2E2E2E2E2E2000000E2000000E200E2E2E2000000E2E2E200E200000000E2E2E200000000000000000000000000000000000000000F0000000000000000000000000000000000000000000000000000000000000000000000000000000000000000000000000000000000000000000000000000767676
310
76000000000F00000000000000000000000000000000000000000000000000000000000000000000000000000000000000000000000000000000000000000000000000000000000000000000000000000000000000000000000000000000000000000000000000000000000000000000000000000000000000000000000000
310
0000000000000000000000000000000000000000000000000000000000000000000000000000000000E20000000000000000000000000000000000000000000F000000001F1F1F1F1F1F00000000E2E2E2E2E2E200000000000000000000000000000000000000000000000000000000000000000000000000000000000000
310
000000000000000F0000000000000000000000000000000000000000000000000000000000000000000000000000000000000000000000000000000000000000000000000000000000000000000000000000000000000000000000000000000000000000000000000000000000000000000000000000000000000000000000
310
00000000000000000000000000000000000000000000000000000000000000000000000000000000000000E20000000000000000000000000000000000000000000F000000001F00000000761F880000E2E2E2E2E2E20000000000000000000000000000000000000000000000000000000000000000000000000000000000
310
0000000000000000000F000000000000000000000000000000000000000000000000000000000000000000000000000000000000000000000000000000000000000000000000000000000000000000000000000000000000000000000000000000000000000000000000000000000000000000000000000000000000000000
310
00000000000000000000000000000000000000000000000000000000000000000000000000000000E2E2E2E2E2E2E2E2E2E2E2E2E2E2E2E2E2E2E2E2E2E2E2E2E2E2E2E2E2E2E200E2000000007600880000E2E2E2E2E2E2000000000000000000000000000000000000000000000000000000000000000000000000000000
310
00000000000000000000000F00000000000000000000000000000000000000000000000000000000000000000000000000000000000000000000000000000000000000000000000000000000000000000000000000000000000000000000000000000000000000000000000000000000000000000000000000000000000000
310
0000000000000000000000000000000000000000000000000000E20000000000000000000000000000000000000000000000000000000000000000000000000000000000000F000000001F000000007600880000E2E2E2E2E2E200000000000000000000000000000000000000000000000000000000000000000000000000
310
000000000000000000000000000F0000000000000000000000000000000000000000000000000000000000000000000000000000000000000000000000000000000000000000000000000000000000000000000000000000000000000000000000000000000000000000000000000000000000000000000000000000000000
310
00000000000000000000000000000000000000000000000000000000E20000000000000000000000000000000000000000000000000000000000000000000000000000000000000F000000001F1F1F1F1F1F1F1F0000E2E2E2E2E2E20000000000000000000000000000000000000000000000000000000000000000000000
310
0000000000000000000000000000000F000000000000000000000000000000000000000000000000000000000000000000000000000000000000000000000000000000000000000000000000000000000000000000000000000000000000000000000000000000000000000000000000000000000000000000000000000000
310
000000000000000000000000000000000000000000000000000000000000E20000000000000000000000000000000000000000000000000000000000000000000000000000000000000F0000000076767676767600000000000000000000000000000000000000000000000000000000000000000000000000000000000000
310
00000000000000000000000000000000000F00000000000000000000000000000000000000000000000000000000000000000000000000000000000000000000000000000000000000000000000000000000000000000000000000000000000000000000000000000000000000000000000000000000000000000000000000
310
0000000000000000000000000000000000000000000000000000000000000000E20000000000000000000000000000000000000000000000000000000000000000000000000000000000000F000000000000000000000000000000000000000000000000000000000000000000000000000000000000000000000000000000
310
000000000000000000000000000000000000000F0000000000000000000000000000000000000000000000000000000000000000000000000000000000000000000000000000000000000000000000000000000000000000000000000000000000000000000000000000000000000000000000000000000000000000000000
310
00000000000000000000000000000000000000000000000000000000000000000000E20000000000000000000000000000000000000000000000000000000000000000000000000000000000000F000000001F1F1F1F1F1F000000000000000000000000000000000000000000000000000000000000000000000000888888
310
8888888888888888888888880000000000000000000F000000000000000000000000000000000000000000000000000000000000000000000000000000000000000000000000000000000000000000000000000000000000000000000000000000000000000000000000000000000000000000000000000000000000000000
310
000000000000000000000000000000000000000000000000000000000000000000000000E20000000000000000000000000000000000000000000000000000000000000000000000000000000000000F000000001F000028281F1F000000000000000000000000000000000000000000000000000000000000000000000088
310
00001F1F1F1F1F1F1F1F000000880000000000000000000F00000000000000000000000000000000000000000000000000000000000000000000000000000000000000000000000000000000000000000000000000000000000000000000000000000000000000000000000000000000000000000000000000000000000000
310
0000000000000000000000000000000000000000000000000000000000000000000000000000E20000000000000000000000000000000000000000000000000000000000000000000000000000000000000F000000001F000028281F1F00000000000000000000000000000000000000000000000000000000000000000000
310
0088001F1F1F1F1F1F1F1F1F1F1F00880000000000000000000F0000000000000000000000000000000000000000000000000000000000000000000000000000000000000000000000000000000000000000000000000000000000000000000000000000000000000000000000000000000000000000000000000000000000
310
00000000000000000000000000000000000000000000000000000000000000000000000000000000E20000000000000000000000000000000000000000000000000000000000000000000000000000000000000F000000001F0000001F1F000000000000000000000000000000000000000000000000000000000000000000
310
00000088001F1F1F1F1F1F1F1F001F1F1F880000000000000000000F000000000000000000000000000000000000000000000000000000000000000000000000000000000000000000000000000000000000000000000000000000000000000000000000000000000000000000000000000000000000000000000000000000
310
000000000000000000000000000000000000000000000000000000000000000000000000000000000000E20000000000000000000000000000000000000000000000000000000000000000000000000000000000000F000000001F28001F000000000000000000000000000000000000000000000000000000000000000000
310
0000000000881F1F1F1F1F1F1F001F00001F1F880000000000000000000F00000000000000000000000000000000000000000000000000000000000000000000000000000000000000000000000000000000000000000000000000000000000000000000000000000000000000000000000000000000000000000000000000
310
0000000000000000000000000000000000000000000000000000000000000000000000000000000000000000E20000000000000000000000000000000000000000000000000000000000000000000000000000000000000F000000001F001F0000000000000000000000000000000000000000000000000000000000000000
310
00000000000000881F1F1F1F1F1F1F1F1F00001F1F880000000000000000000F0000000000000000000000000000000000000000000000000000000000000000000000000000000000000000000000000000000000000000000000000000000000000000000000000000000000000000000000000000000000000000000000
310
00000000000000000000000000000000000000000000000000000000000000000000000000000000000000000000E20000000000000000000000000000000000000000000000000000000000000000000000000000000000000F000000001F281F000000000000000000000000000000000000000000000000000000000000
310
000000000000000000881F1F1F1F1F1F1F1F1F1F001F1F880000000000000000000F000000000000000000000000000000000000000000000000000000000000000000000000000000000000000000000000000000000000000000000000000000000000000000000000000000000000000000000000000000000000000000
310
000000000000000000000000000000000000000000000000000000000000000000000000000000000000000000000000E20000000000000000000000000000000000000000000000000000000000000000000000000000000000000F000000001F1F1F00000000000000000000000000000000000000000000000000000000
310
000000000000000000000088001F1F1F1F1F1F001F1F1F1F00880000000000000000000F00000000000000000000000000000000000000000000000000000000000000000000000000000000000000000000000000000000000000000000000000000000000000000000000000000000000000000000000000000000000000
310
0000000000000000000000000000000000000000000000000000000000000000000000000000000000000000000000000000E20000000000000000000000000000000000000000000000000000000000000000000000000000000000000F000000000000000000000000000000000000000000000000000000000000000000
310
00000000000000000000000000880000000000001F1F1F00000000880000000000000000000F0000000000000000000000000000000000000000000000000000000000000000000000000000000000000000000000000000000000000000000000000000000000000000000000000000000000000000000000000000000000
310
00000000000000000000000000000000000000000000000000000000000000000000000000000000000000000000000000000000E20000000000000000000000000000000000000000000000000000000000000000000000000000000000000F00000000000000000000000000000000000000000000000000000000000000
310
0000000000000000000000000000008888888888888888888888888888880000000000000000000F000000000000000000000000000000000000000000000000000000000000000000000000000000000000000000000000000000000000000000000000000000000000000000000000000000000000000000000000000000
310
000000000000000000000000000000000000000000000000000000000000000000000000000000000000000000000000000000000000E20000000000000000000000000000000000000000000000000000000000000000000000000000000000000F0000000000000000000000000000000000000000000000000000000000
310
00000000000000000000000000000000000000000000000000000000000000000000000000000000000F00000000000000000000000000000000000000000000000000000000000000000000000000000000000000000000000000000000000000000000000000000000000000000000000000000000000000000000000000
310
0000000000000000000000000000000000000000000000000000000000000000000000000000000000000000000000000000000000000000E20000000000000000000000000000000000000000000000000000000000000000000000000000000000000F000000000000000000000000000000000000000000000000000000
310
000000000000000000000000000000000000000000000000000000000000000000000000000000000000000F0000000000000000000000000000000000000000000000000000000000000000000000000000000000000000000000000000000000000000000000000000000000000000000000000000000000000000000000
310
00000000000000000000000000000000000000000000000000000000000000000000000000000000000000000000000000000000000000000000E20000000000000000000000000000000000000000000000000000000000000000000000000000000000000F00000000000000000000000000000000000000000000000000
310
0000000000000000000000000000000000000000000000000000000000000000000000000000000000000000000F000000000000000000000000000000000000000000000000000000000000000000000000000000000000000000000000000000000000000000000000000000000000000000000000000000000000000000
310
000000000000000000000000000000000000000000000000000000000000000000000000000000000000000000000000000000000000000000000000E20000000000000000000000000000000000000000000000000000000000000000000000000000000000000F0000000000000000000000000000000000000000000000
310
0000000000E2E200000000000000000000000000000000000000E2E2E2E200000000000000000000000000000000000F00000000000000000000000000000000000000000000000000000000000000000000000000000000000000000000000000000000000000000000000000000000000000000000000000000000000000
310
0000000000000000000000000000000000000000000000000000000000000000000000000000000000000000000000000000000000000000000000000000E20000000000000000000000000000000000000000000000000000000000000000000000000000000000000F000000000000000000000000000000000000000000
310
00000000000000E2E200000000000000000000000000000000000000E2E2E2E200000000000000000000000000000000000F0000000000000000000000000000000000000000000000000000000000000000000000000000000000000000000000000000000000000000000000000000000000000000000000000000000000
310
00000000000000000000000000000000000000000000000000000000000000000000000000000000000000000000000000000000000000000000000000000000E20000000000000000000000000000000000000000000000000000000000000000000000000000000000000F00000000000000000000000000000000000000
310
000000000000000000E2E200000000000000000000000000000000000000E2E2E2E200000000000000000000000000000000000F000000000000000000000000000000000000000000000000000000000000000000000000000000000000000000000000000000000000000000000000000000000000000000000000000000
310
000000000000000000000000000000000000000000000000000000000000000000000000000000000000000000000000000000000000000000000000000000000000E20000000000000000000000000000000000000000000000000000000000000000000000000000000000000F0000000000000000000000000000000000
310
0000000000000000000000E2E200000000000000000000000000000000000000E2E2E2E200000000000000000000000000000000000F00000000000000000000000000000000000000000000000000000000000000000000000000000000000000000000000000000000000000000000000000000000000000000000000000
310
0000000000000000000000000000000000000000000000000000000000000000000000000000000000000000000000000000000000000000000000000000000000000000E20000000000000000000000000000000000000000000000000000000000000000000000000000000000000F000000000000000000000000000000
310
00000000000000000000000000E2E200000000000000000000000000000000000000E2E2E2E200000000000000000000000000000000000F0000000000000000000000000000000000000000000000000000000000000000000000000000000000000000000000000000000000000000000000000000000000000000000000
310
00000000000000000000000000000000000000000000000000000000000000000000000000000000000000000000000000000000000000000000000000000000000000000000E20000000000000000000000000000000000000000000000000000000000000000000000000000000000000F00000000000000000000000000
310
0000000000000000000000000000000000000000000000000000000000000000000000000000000000000000000000000000000000000000000F000000000000000000000000000000000000000000000000000000000000000000000000000000000000000000000000000000000000000000000000000000000000000000
310
000000000000000000000000000000000000000000000000000000000000000000000000000000000000000000000000000000000000000000000000000000000000000000000000E20000000000000000000000000000000000000000000000000000000000000000000000000000000000000F0000000000000000000000
310
00000000008888888888000000000000000000000000000000000088282828760000000000000000000000000000000076767676760000000000000F00000000000000000000000000000000000000000000000000000000000000000000000000000000000000000000000000000000000000000000000000000000000000
310
0000000000000000000000000000000000000000000000000000000000000000000000000000000000000000000000000000000000000000000000000000000000000000000000000000E20000000000000000000000000000000000000000000000000000000000000000000000000000000000000F000000000000000000
310
0000000000000088282828880000000000000000000000000000000000882828287600000000000000000000000000000000761F2828760000000000000F0000000000000000000000000000000000000000000000000000000000000000000000000000000000000000000000000000000000000000000000000000000000
310
00000000000000000000000000000000000000000000000000000000000000000000000000000000000000000000000000000000000000000000000000000000000000000000000000000000E20000000000000000000000000000000000000000000000000000000000000000000000000000000000000F00000000000000
310
0000000000000076888800000088881F000088888888888888880000008888880000888888000000767676767676767600000076761F0000767676000000000F000000000000000000000000000000000000000000000000000000000000000000000000000000000000000000000000000000000000000000000000000000
310
000000000000000000000000000000000000000000000000000000000000000000000000000000000000000000000000000000000000000000000000000000000000000000000000000000000000E20000000000000000000000000000000000000000000000000000000000000000000000000000000000000F0000000000
310
00000000000000000076880000000000881F00008879000000000088000000880000000000008800000076000000000000760000007600000000000076000000000F00000000000000000000000000000000000000000000000000000000000000000000000000000000000000000000000000000000000000000000000000
310
0000000000000000000000000000000000000000000000000000000000000000000000000000000000000000000000000000000000000000000000000000000000000000000000000000000000000000E20000000000000000000000000000000000000000000000000000000000000000000000000000000000000F000000
310
000000000000000000000076880000000000881F00008879000000000088000000880000000000008800000076000000000000760000007600000000000076000000000F0000000000000000000000000000000000000000000000000000000000000000000000000000000000000000000000000000000000000000000000
310
00000000000000000000000000000000000000000000000000000000000000000000000000000000000000000000000000000000000000000000000000000000000000000000000000000000000000000000E20000000000000000000000000000000000000000000000000000000000000000000000000000000000000F00
310
0000000000000000000000000076880000000000881F00008879000000000088000000880000000000008800000076000000000000760000007600000000000076000000000F000000000000000000000000000000000000000000000000000000000000000000000000000000000000000000000000000000000000000000
310
000000000000000000000000000000000000000000000000000000000000000000000000000000000000000000000000000000000000000000000000000000000000000000000000000000000000000000000000E2000000000000000000000000000000000000000000000000000000000000000000000000000000000000
310
0F000000000000000000000000000076880000000000881F00008879000000000088000000880000000000008800000076000000000000760000007600000000000076000000000F00000000000000000000000000000000000000000000000000000000000000000000000000000000000000000000000000000000000000
310
0000000000000000000000000000000000000000000000000000000000000000000000000000000000000000000000000000000000000000000000000000000000000000000000000000000000000000000000000000E200000000000000000000000000000000000000000000000000000000000000000000000000000000
310
00000F000000000000000000000000000076880000000000881F00008879000000000088000000880000000000008800000076000000000000760000007600000000000076000000000F0000000000000000000000000000000000000000000000000000000000000000000000000000000000000000000000000000000000
310
000000000000000000000000000000000000000000000000000000000000000000000000000000000000000000000000000000000000000000000000000000000000000000000000000000000000000000000000000000E2E2E200000000000000000000000000000000000000000000000000000000000000000000000000
310
000000000F000000000000000000000000000076880000000000881F00008879000000000088000000880000000000008800000076000000000000760000007600000000000076000000000F000000000000000000000000000000000000000000000000000000000000000000000000000000000000000000000000000000
310
0000000000000000000000000000000000000000000000000000000000000000000000000000000000000000000000000000000000000000000000000000000000000000000000000000000000000000000000000000000000E2E2E20000000000000000000000000000000000000000000000000000000000000000000000
310
0000000000000F000000000000000000000000000076888888888888881F000088888888E2888888000000888888888888888800000076767676767676760000007676767676767676000000000F00000000000000000000000000000000000000000000000000000000000000000000000000000000000000000000000000
310
00000000000000000000000000000000000000000000000000000000000000000000000000000000000000000000000000000000000000000000000000000000000000000000000000000000000000000000000000000000000000E2E2E2000000000000000000000000000000000000000000000000000000000000000000
310
00000000000000000F000000000000000000000000000000000000000000000000000000000000000000000000000000000000000000000000000000000000000000000000000000000000000000000F0000000000000000000000000000000000000000000000000000000000000000000000000000000000000000000000
310
000000000000000000000000000000000000000000000000000000000000000000000000000000000000000000000000000000000000000000000000000000000000000000000000000000000000000000000000000000000000000000E2E2E200000000000000000000000000000000000000000000000000000000000000
310
000000000000000000000F0000000000000000000000000000000000000000000000000000000000E2000000000000000000000000000000000000000000000000000000000000000000000000000000000F000000000000000000000000000000000000000000000000000000000000000000000000000000000000000000
310
000000000000000000000000000000000000000000000000000000000000000000000000000000000000000000000000000000000000000000000000000000000000000000000000000000000000000000000000000000000000000000000000E2000000000000000000000000000000000000000000000000000000000000
310
0000000000000000000000000F0000000000000000000000000000000000000000000000000000000000E2000000000000000000000000000000000000000000000000000000000000000000000000000000000F00000000000000000000000000000000000000000000000000000000000000000000000000000000000000
310
0000000000000000000000000000000000000000000000000000000000000000000000000000000000000000000000000000000000000000000000000000000000000000000000000000000000000000000000000000000000000000000000000000E200000000000000000000000000000000000000000000000000000000
310
00000000000000000000000000000F0000000000000000000000000000000000000000000000000000000000E2000000000000000000000000000000000000000000000000000000000000000000000000000000000F0000000000000000000000000000000000000000000000000000000000000000000000000000000000
310
00000000000000000000000000000000000000000000000000000000000000000000000000000000000000000000000000000000000000000000000000000000000000000000000000000000000000000000000000000000000000000000E2E2E2E2E2E2E2E2E2E2E2E2E2E2E2E2E2E2E2E2E2E2E2E2E2E2E2E2E2E2E2E2E2
310
E2E2E2E2E2E2E2E2E2E2E2E2E2E2E200E20F0F0F0F0F0F0F0F0F0F0F0F0F0F0F0F0F0F0F0F0F0F0F0F0F0F0F0F0FE20F0F0F0F0F0F0F0F0F0F0F0F0F0F0F0F0F0F0F0F0F0F0F0F0F0F0F0F0F0F0F0F0F0F0F0F0F0F0F0F0F000000000000000000000000000000000000000000000000000000000000000000000000000000
310
00000000000000000000000000000000000000000000000000000000000000000000000000000000000000000000000000000000000000000000000000000000000000000000000000000000000000000000000000000000000000000000000000000000000000000000000000000000000000000000000000000000000000
310
000000000000000000000000000000000000E20000000000000000000000000000000000000000000000000000000000E2000000000000000000000000000000000000000000000000000000000000000000000000000000000000000000000000000000000000000000000000000000000000000000000000000000000000
310
00000000000000000000000000000000000000000000000000000000000000000000000000000000000000000000000000000000000000000000000000000000000000000000000000000000000000000000000000000000000000000000000000000000000000000000000000000000000000000000000000000000000000
310
0000000000000000000000000000000000000000E20000000000000000000000000000000000000000000000000000000000E200000000000000000000000000000000000000000000000000000000000000000000000000000000000000000000000000000000000000000000000000000000000000000000000000000000
310
00000000000000000000000000000000000000000000000000000000000000000000000000000000000000000000000000000000000000000000000000000000000000000000000000000000000000000000000000000000000000000000000000000000000000000000000000000000000000000000000000000000000000
310
00000000000000000000000000000000000000000000E20000000000000000000000000000000000000000000000000000000000E20000000000000000000000000000000000000000000000000000000000000000000000000000000000000000000000000000000000000000000000000000000000000000000000000000
310
00000000000000000000000000000000000000000000000000000000000000000000000000000000000000000000000000000000000000000000000000000000000000000000000000000000000000000000000000000000000000000000000000000000000000000000000000000000000000000000000000000000000000
310
000000000000000000000000000000000000000000000000E20000000000000000000000000000000000000000000000000000000000E2000000000000000000000000000000000000000000000000000000000000000000000000000000000000000000000000000000000000000000000000000000000000000000000000
310
00000000000000000000000000000000000000000000000000000000000000000000000000000000000000000000000000000000000000000000000000000000000000000000000000000000000000000000000000000000000000000000000000000000000000000000000000000000000000000000000000000000000000
310
0000000000000000000000000000000000000000000000000000E20000000000000000000000000000000000000000000000000000000000E200000000000000000000000000000000000000000000000000000000000000000000000000000000000000000000000000000000000000000000000000000000000000000000
310
00000000000000000000000000000000000000000000000000000000000000000000000000000000000000000000000000000000000000000000000000000000000000000000000000000000000000000000000000000000000000000000000000000000000000000000000000000000000000000000000000000000000000
310
00000000000000000000000000000000000000000000000000000000E20000000000000000000000000000000000000000000000000000000000E20000000000000000000000000000000000000000000000000000000000000000000000000000000000000000000000000000000000000000000000000000000000000000
310
000000000000000000000000000000000000000000000000000000000000000000000000
  0
XRECORD
  5
A38
102
{ACAD_REACTORS
330
194
102
}
330
194
100
AcDbXrecord
280
     1
102
MATERIAL
148
0.0
149
0.0
149
0.0
 93
        0
 94
      127
282
     0
 72
     0
 77
     0
171
     0
175
     0
179
     0
273
     0
  0
XRECORD
  5
196
102
{ACAD_REACTORS
330
194
102
}
330
194
100
AcDbXrecord
280
     1
270
     1
271
     1
  0
XRECORD
  5
195
102
{ACAD_REACTORS
330
194
102
}
330
194
100
AcDbXrecord
280
     1
270
     1
271
     1
  0
XRECORD
  5
199
102
{ACAD_REACTORS
330
194
102
}
330
194
100
AcDbXrecord
280
     1
270
     1
271
     1
  0
XRECORD
  5
198
102
{ACAD_REACTORS
330
194
102
}
330
194
100
AcDbXrecord
280
     1
270
     1
271
     1
  0
XRECORD
  5
19A
102
{ACAD_REACTORS
330
194
102
}
330
194
100
AcDbXrecord
280
     1
270
     1
271
     1
  0
XRECORD
  5
197
102
{ACAD_REACTORS
330
194
102
}
330
194
100
AcDbXrecord
280
     1
270
     1
271
     1
  0
XRECORD
  5
A37
102
{ACAD_REACTORS
330
18C
102
}
330
18C
100
AcDbXrecord
280
     1
102
MATERIAL
148
0.0
149
0.0
149
0.0
 93
        0
 94
      127
282
     0
 72
     0
 77
     0
171
     0
175
     0
179
     0
273
     0
  0
XRECORD
  5
18E
102
{ACAD_REACTORS
330
18C
102
}
330
18C
100
AcDbXrecord
280
     1
270
     1
271
     1
  0
XRECORD
  5
18D
102
{ACAD_REACTORS
330
18C
102
}
330
18C
100
AcDbXrecord
280
     1
270
     1
271
     1
  0
XRECORD
  5
191
102
{ACAD_REACTORS
330
18C
102
}
330
18C
100
AcDbXrecord
280
     1
270
     1
271
     1
  0
XRECORD
  5
190
102
{ACAD_REACTORS
330
18C
102
}
330
18C
100
AcDbXrecord
280
     1
270
     1
271
     1
  0
XRECORD
  5
192
102
{ACAD_REACTORS
330
18C
102
}
330
18C
100
AcDbXrecord
280
     1
270
     1
271
     1
  0
XRECORD
  5
18F
102
{ACAD_REACTORS
330
18C
102
}
330
18C
100
AcDbXrecord
280
     1
270
     1
271
     1
  0
XRECORD
  5
A39
102
{ACAD_REACTORS
330
19C
102
}
330
19C
100
AcDbXrecord
280
     1
102
MATERIAL
148
0.0
149
0.0
149
0.0
 93
        0
 94
      127
282
     0
 72
     0
 77
     0
171
     0
175
     0
179
     0
273
     0
  0
XRECORD
  5
19E
102
{ACAD_REACTORS
330
19C
102
}
330
19C
100
AcDbXrecord
280
     1
270
     1
271
     1
  0
XRECORD
  5
19D
102
{ACAD_REACTORS
330
19C
102
}
330
19C
100
AcDbXrecord
280
     1
270
     1
271
     1
  0
XRECORD
  5
1A1
102
{ACAD_REACTORS
330
19C
102
}
330
19C
100
AcDbXrecord
280
     1
270
     1
271
     1
  0
XRECORD
  5
1A0
102
{ACAD_REACTORS
330
19C
102
}
330
19C
100
AcDbXrecord
280
     1
270
     1
271
     1
  0
XRECORD
  5
1A2
102
{ACAD_REACTORS
330
19C
102
}
330
19C
100
AcDbXrecord
280
     1
270
     1
271
     1
  0
XRECORD
  5
19F
102
{ACAD_REACTORS
330
19C
102
}
330
19C
100
AcDbXrecord
280
     1
270
     1
271
     1
  0
CELLSTYLEMAP
  5
A0E
102
{ACAD_REACTORS
330
A0D
102
}
330
A0D
100
AcDbCellStyleMap
 90
        3
300
CELLSTYLE
  1
TABLEFORMAT_BEGIN
 90
        5
170
     1
 91
        0
 92
    32768
 62
   257
 93
        1
300
CONTENTFORMAT
  1
CONTENTFORMAT_BEGIN
 90
        0
 91
        0
 92
      512
 93
        0
300

 40
0.0
140
1.0
 94
        5
 62
     0
340
11
144
0.25
309
CONTENTFORMAT_END
171
     0
 94
        0
309
TABLEFORMAT_END
  1
CELLSTYLE_BEGIN
 90
        1
 91
        1
300
_TITLE
309
CELLSTYLE_END
300
CELLSTYLE
  1
TABLEFORMAT_BEGIN
 90
        5
170
     1
 91
        0
 92
        0
 62
   257
 93
        1
300
CONTENTFORMAT
  1
CONTENTFORMAT_BEGIN
 90
        0
 91
        0
 92
      512
 93
        0
300

 40
0.0
140
1.0
 94
        5
 62
     0
340
11
144
0.18
309
CONTENTFORMAT_END
171
     0
 94
        0
309
TABLEFORMAT_END
  1
CELLSTYLE_BEGIN
 90
        2
 91
        1
300
_HEADER
309
CELLSTYLE_END
300
CELLSTYLE
  1
TABLEFORMAT_BEGIN
 90
        5
170
     1
 91
        0
 92
        0
 62
   257
 93
        1
300
CONTENTFORMAT
  1
CONTENTFORMAT_BEGIN
 90
        0
 91
        0
 92
      512
 93
        0
300

 40
0.0
140
1.0
 94
        2
 62
     0
340
11
144
0.18
309
CONTENTFORMAT_END
171
     0
 94
        0
309
TABLEFORMAT_END
  1
CELLSTYLE_BEGIN
 90
        3
 91
        2
300
_DATA
309
CELLSTYLE_END
  0
XRECORD
  5
A4E
102
{ACAD_REACTORS
330
A0D
102
}
330
A0D
100
AcDbXrecord
280
     1
102
ACAD_ROUNDTRIP_PRE2007_TABLESTYLE
 90
      512
 91
        0
  1

 92
      512
 93
        0
  2

 94
      512
 95
        0
  3

  0
XRECORD
  5
A20
102
{ACAD_REACTORS
330
A1F
102
}
330
A1F
100
AcDbXrecord
280
     1
102
RTVSPropertyOp0
 70
     1
102
RTVSPropertyOp1
 70
     1
102
RTVSPropertyOp2
 70
     1
102
RTVSPropertyOp3
 70
     1
102
RTVSPropertyOp4
 70
     1
102
RTVSPropertyOp5
 70
     1
102
RTVSPropertyOp6
 70
     1
102
RTVSPropertyOp7
 70
     1
102
RTVSPropertyOp8
 70
     1
102
RTVSPropertyOp9
 70
     1
102
RTVSPropertyOp10
 70
     1
102
RTVSPropertyOp11
 70
     1
102
RTVSPropertyOp12
 70
     1
102
RTVSPropertyOp13
 70
     1
102
RTVSPropertyOp14
 70
     1
102
RTVSPropertyOp15
 70
     1
102
RTVSPropertyOp16
 70
     1
102
RTVSPropertyOp17
 70
     1
102
RTVSPropertyOp18
 70
     1
102
RTVSPropertyOp19
 70
     1
102
RTVSPropertyOp20
 70
     1
102
RTVSPropertyOp21
 70
     1
102
RTVSPropertyOp22
 70
     1
102
RTVSPropertyOp23
 70
     1
102
RTVSPropertyOp24
 70
     1
102
RTVSPropertyOp25
 70
     1
102
RTVSPropertyOp26
 70
     1
102
RTVSPropertyOp27
 70
     1
102
RTVSPropertyOp28
 70
     1
102
RTVSPropertyOp29
 70
     1
102
RTVSPropertyOp30
 70
     1
102
RTVSPropertyOp31
 70
     1
102
RTVSPropertyOp32
 70
     1
  0
XRECORD
  5
A24
102
{ACAD_REACTORS
330
A23
102
}
330
A23
100
AcDbXrecord
280
     1
102
RTVSPropertyOp0
 70
     1
102
RTVSPropertyOp1
 70
     1
102
RTVSPropertyOp2
 70
     1
102
RTVSPropertyOp3
 70
     1
102
RTVSPropertyOp4
 70
     1
102
RTVSPropertyOp5
 70
     1
102
RTVSPropertyOp6
 70
     1
102
RTVSPropertyOp7
 70
     1
102
RTVSPropertyOp8
 70
     1
102
RTVSPropertyOp9
 70
     1
102
RTVSPropertyOp10
 70
     1
102
RTVSPropertyOp11
 70
     1
102
RTVSPropertyOp12
 70
     1
102
RTVSPropertyOp13
 70
     1
102
RTVSPropertyOp14
 70
     1
102
RTVSPropertyOp15
 70
     1
102
RTVSPropertyOp16
 70
     1
102
RTVSPropertyOp17
 70
     1
102
RTVSPropertyOp18
 70
     1
102
RTVSPropertyOp19
 70
     1
102
RTVSPropertyOp20
 70
     1
102
RTVSPropertyOp21
 70
     1
102
RTVSPropertyOp22
 70
     1
102
RTVSPropertyOp23
 70
     1
102
RTVSPropertyOp24
 70
     1
102
RTVSPropertyOp25
 70
     1
102
RTVSPropertyOp26
 70
     1
102
RTVSPropertyOp27
 70
     1
102
RTVSPropertyOp28
 70
     1
102
RTVSPropertyOp29
 70
     1
102
RTVSPropertyOp30
 70
     1
102
RTVSPropertyOp31
 70
     1
102
RTVSPropertyOp32
 70
     1
  0
XRECORD
  5
A22
102
{ACAD_REACTORS
330
A21
102
}
330
A21
100
AcDbXrecord
280
     1
102
RTVSPropertyOp0
 70
     1
102
RTVSPropertyOp1
 70
     1
102
RTVSPropertyOp2
 70
     1
102
RTVSPropertyOp3
 70
     1
102
RTVSPropertyOp4
 70
     1
102
RTVSPropertyOp5
 70
     1
102
RTVSPropertyOp6
 70
     1
102
RTVSPropertyOp7
 70
     1
102
RTVSPropertyOp8
 70
     1
102
RTVSPropertyOp9
 70
     1
102
RTVSPropertyOp10
 70
     1
102
RTVSPropertyOp11
 70
     1
102
RTVSPropertyOp12
 70
     1
102
RTVSPropertyOp13
 70
     1
102
RTVSPropertyOp14
 70
     1
102
RTVSPropertyOp15
 70
     1
102
RTVSPropertyOp16
 70
     1
102
RTVSPropertyOp17
 70
     1
102
RTVSPropertyOp18
 70
     1
102
RTVSPropertyOp19
 70
     1
102
RTVSPropertyOp20
 70
     1
102
RTVSPropertyOp21
 70
     1
102
RTVSPropertyOp22
 70
     1
102
RTVSPropertyOp23
 70
     1
102
RTVSPropertyOp24
 70
     1
102
RTVSPropertyOp25
 70
     1
102
RTVSPropertyOp26
 70
     1
102
RTVSPropertyOp27
 70
     1
102
RTVSPropertyOp28
 70
     1
102
RTVSPropertyOp29
 70
     1
102
RTVSPropertyOp30
 70
     1
102
RTVSPropertyOp31
 70
     1
102
RTVSPropertyOp32
 70
     1
  0
XRECORD
  5
A26
102
{ACAD_REACTORS
330
A25
102
}
330
A25
100
AcDbXrecord
280
     1
102
RTVSPropertyOp0
 70
     1
102
RTVSPropertyOp1
 70
     1
102
RTVSPropertyOp2
 70
     1
102
RTVSPropertyOp3
 70
     1
102
RTVSPropertyOp4
 70
     1
102
RTVSPropertyOp5
 70
     1
102
RTVSPropertyOp6
 70
     1
102
RTVSPropertyOp7
 70
     1
102
RTVSPropertyOp8
 70
     1
102
RTVSPropertyOp9
 70
     1
102
RTVSPropertyOp10
 70
     1
102
RTVSPropertyOp11
 70
     1
102
RTVSPropertyOp12
 70
     1
102
RTVSPropertyOp13
 70
     1
102
RTVSPropertyOp14
 70
     1
102
RTVSPropertyOp15
 70
     1
102
RTVSPropertyOp16
 70
     1
102
RTVSPropertyOp17
 70
     1
102
RTVSPropertyOp18
 70
     1
102
RTVSPropertyOp19
 70
     1
102
RTVSPropertyOp20
 70
     1
102
RTVSPropertyOp21
 70
     1
102
RTVSPropertyOp22
 70
     1
102
RTVSPropertyOp23
 70
     1
102
RTVSPropertyOp24
 70
     1
102
RTVSPropertyOp25
 70
     1
102
RTVSPropertyOp26
 70
     1
102
RTVSPropertyOp27
 70
     1
102
RTVSPropertyOp28
 70
     1
102
RTVSPropertyOp29
 70
     1
102
RTVSPropertyOp30
 70
     1
102
RTVSPropertyOp31
 70
     1
102
RTVSPropertyOp32
 70
     1
  0
XRECORD
  5
A2E
102
{ACAD_REACTORS
330
A2D
102
}
330
A2D
100
AcDbXrecord
280
     1
102
RTVSPropertyOp0
 70
     1
102
RTVSPropertyOp1
 70
     1
102
RTVSPropertyOp2
 70
     1
102
RTVSPropertyOp3
 70
     1
102
RTVSPropertyOp4
 70
     1
102
RTVSPropertyOp5
 70
     1
102
RTVSPropertyOp6
 70
     1
102
RTVSPropertyOp7
 70
     1
102
RTVSPropertyOp8
 70
     1
102
RTVSPropertyOp9
 70
     1
102
RTVSPropertyOp10
 70
     1
102
RTVSPropertyOp11
 70
     1
102
RTVSPropertyOp12
 70
     1
102
RTVSPropertyOp13
 70
     1
102
RTVSPropertyOp14
 70
     1
102
RTVSPropertyOp15
 70
     1
102
RTVSPropertyOp16
 70
     1
102
RTVSPropertyOp17
 70
     1
102
RTVSPropertyOp18
 70
     1
102
RTVSPropertyOp19
 70
     1
102
RTVSPropertyOp20
 70
     1
102
RTVSPropertyOp21
 70
     1
102
RTVSPropertyOp22
 70
     1
102
RTVSPropertyOp23
 70
     1
102
RTVSPropertyOp24
 70
     1
102
RTVSPropertyOp25
 70
     1
102
RTVSPropertyOp26
 70
     1
102
RTVSPropertyOp27
 70
     1
102
RTVSPropertyOp28
 70
     1
102
RTVSPropertyOp29
 70
     1
102
RTVSPropertyOp30
 70
     1
102
RTVSPropertyOp31
 70
     1
102
RTVSPropertyOp32
 70
     1
  0
XRECORD
  5
A36
102
{ACAD_REACTORS
330
A35
102
}
330
A35
100
AcDbXrecord
280
     1
102
RTVSPropertyOp0
 70
     1
102
RTVSPropertyOp1
 70
     1
102
RTVSPropertyOp2
 70
     1
102
RTVSPropertyOp3
 70
     1
102
RTVSPropertyOp4
 70
     1
102
RTVSPropertyOp5
 70
     1
102
RTVSPropertyOp6
 70
     1
102
RTVSPropertyOp7
 70
     1
102
RTVSPropertyOp8
 70
     1
102
RTVSPropertyOp9
 70
     1
102
RTVSPropertyOp10
 70
     1
102
RTVSPropertyOp11
 70
     1
102
RTVSPropertyOp12
 70
     1
102
RTVSPropertyOp13
 70
     1
102
RTVSPropertyOp14
 70
     1
102
RTVSPropertyOp15
 70
     1
102
RTVSPropertyOp16
 70
     1
102
RTVSPropertyOp17
 70
     1
102
RTVSPropertyOp18
 70
     1
102
RTVSPropertyOp19
 70
     1
102
RTVSPropertyOp20
 70
     1
102
RTVSPropertyOp21
 70
     1
102
RTVSPropertyOp22
 70
     1
102
RTVSPropertyOp23
 70
     1
102
RTVSPropertyOp24
 70
     1
102
RTVSPropertyOp25
 70
     1
102
RTVSPropertyOp26
 70
     1
102
RTVSPropertyOp27
 70
     1
102
RTVSPropertyOp28
 70
     1
102
RTVSPropertyOp29
 70
     1
102
RTVSPropertyOp30
 70
     1
102
RTVSPropertyOp31
 70
     1
102
RTVSPropertyOp32
 70
     1
  0
XRECORD
  5
A2A
102
{ACAD_REACTORS
330
A29
102
}
330
A29
100
AcDbXrecord
280
     1
102
RTVSPropertyOp0
 70
     1
102
RTVSPropertyOp1
 70
     1
102
RTVSPropertyOp2
 70
     1
102
RTVSPropertyOp3
 70
     1
102
RTVSPropertyOp4
 70
     1
102
RTVSPropertyOp5
 70
     1
102
RTVSPropertyOp6
 70
     1
102
RTVSPropertyOp7
 70
     1
102
RTVSPropertyOp8
 70
     1
102
RTVSPropertyOp9
 70
     1
102
RTVSPropertyOp10
 70
     1
102
RTVSPropertyOp11
 70
     1
102
RTVSPropertyOp12
 70
     1
102
RTVSPropertyOp13
 70
     1
102
RTVSPropertyOp14
 70
     1
102
RTVSPropertyOp15
 70
     1
102
RTVSPropertyOp16
 70
     1
102
RTVSPropertyOp17
 70
     1
102
RTVSPropertyOp18
 70
     1
102
RTVSPropertyOp19
 70
     1
102
RTVSPropertyOp20
 70
     1
102
RTVSPropertyOp21
 70
     1
102
RTVSPropertyOp22
 70
     1
102
RTVSPropertyOp23
 70
     1
102
RTVSPropertyOp24
 70
     1
102
RTVSPropertyOp25
 70
     1
102
RTVSPropertyOp26
 70
     1
102
RTVSPropertyOp27
 70
     1
102
RTVSPropertyOp28
 70
     1
102
RTVSPropertyOp29
 70
     1
102
RTVSPropertyOp30
 70
     1
102
RTVSPropertyOp31
 70
     1
102
RTVSPropertyOp32
 70
     1
  0
XRECORD
  5
A2C
102
{ACAD_REACTORS
330
A2B
102
}
330
A2B
100
AcDbXrecord
280
     1
102
RTVSPropertyOp0
 70
     1
102
RTVSPropertyOp1
 70
     1
102
RTVSPropertyOp2
 70
     1
102
RTVSPropertyOp3
 70
     1
102
RTVSPropertyOp4
 70
     1
102
RTVSPropertyOp5
 70
     1
102
RTVSPropertyOp6
 70
     1
102
RTVSPropertyOp7
 70
     1
102
RTVSPropertyOp8
 70
     1
102
RTVSPropertyOp9
 70
     1
102
RTVSPropertyOp10
 70
     1
102
RTVSPropertyOp11
 70
     1
102
RTVSPropertyOp12
 70
     1
102
RTVSPropertyOp13
 70
     1
102
RTVSPropertyOp14
 70
     1
102
RTVSPropertyOp15
 70
     1
102
RTVSPropertyOp16
 70
     1
102
RTVSPropertyOp17
 70
     1
102
RTVSPropertyOp18
 70
     1
102
RTVSPropertyOp19
 70
     1
102
RTVSPropertyOp20
 70
     1
102
RTVSPropertyOp21
 70
     1
102
RTVSPropertyOp22
 70
     1
102
RTVSPropertyOp23
 70
     1
102
RTVSPropertyOp24
 70
     1
102
RTVSPropertyOp25
 70
     1
102
RTVSPropertyOp26
 70
     1
102
RTVSPropertyOp27
 70
     1
102
RTVSPropertyOp28
 70
     1
102
RTVSPropertyOp29
 70
     1
102
RTVSPropertyOp30
 70
     1
102
RTVSPropertyOp31
 70
     1
102
RTVSPropertyOp32
 70
     1
  0
XRECORD
  5
A4D
102
{ACAD_REACTORS
330
A4C
102
}
330
A4C
100
AcDbXrecord
280
     1
102
RTVSPropertyOp0
 70
     0
102
RTVSPropertyOp1
 70
     0
102
RTVSPropertyOp2
 70
     0
102
RTVSPropertyOp3
 70
     0
102
RTVSPropertyOp4
 70
     0
102
RTVSPropertyOp5
 70
     0
102
RTVSPropertyOp6
 70
     0
102
RTVSPropertyOp7
 70
     0
102
RTVSPropertyOp8
 70
     0
102
RTVSPropertyOp9
 70
     0
102
RTVSPropertyOp10
 70
     0
102
RTVSPropertyOp11
 70
     0
102
RTVSPropertyOp12
 70
     0
102
RTVSPropertyOp13
 70
     0
102
RTVSPropertyOp14
 70
     2
102
RTVSPropertyOp15
 70
     0
102
RTVSPropertyOp16
 70
     0
102
RTVSPropertyOp17
 70
     0
102
RTVSPropertyOp18
 70
     0
102
RTVSPropertyOp19
 70
     0
102
RTVSPropertyOp20
 70
     0
102
RTVSPropertyOp21
 70
     0
102
RTVSPropertyOp22
 70
     0
102
RTVSPropertyOp23
 70
     0
102
RTVSPropertyOp24
 70
     0
102
RTVSPropertyOp25
 70
     0
102
RTVSPropertyOp26
 70
     0
102
RTVSPropertyOp27
 70
     0
102
RTVSPropertyOp28
 70
     0
102
RTVSPropertyOp29
 70
     0
102
RTVSPropertyOp30
 70
     0
102
RTVSPropertyOp31
 70
     0
102
RTVSPropertyOp32
 70
     0
  0
XRECORD
  5
A34
102
{ACAD_REACTORS
330
A33
102
}
330
A33
100
AcDbXrecord
280
     1
102
RTVSPropertyOp0
 70
     1
102
RTVSPropertyOp1
 70
     1
102
RTVSPropertyOp2
 70
     1
102
RTVSPropertyOp3
 70
     1
102
RTVSPropertyOp4
 70
     1
102
RTVSPropertyOp5
 70
     1
102
RTVSPropertyOp6
 70
     1
102
RTVSPropertyOp7
 70
     1
102
RTVSPropertyOp8
 70
     1
102
RTVSPropertyOp9
 70
     1
102
RTVSPropertyOp10
 70
     1
102
RTVSPropertyOp11
 70
     1
102
RTVSPropertyOp12
 70
     1
102
RTVSPropertyOp13
 70
     1
102
RTVSPropertyOp14
 70
     1
102
RTVSPropertyOp15
 70
     1
102
RTVSPropertyOp16
 70
     1
102
RTVSPropertyOp17
 70
     1
102
RTVSPropertyOp18
 70
     1
102
RTVSPropertyOp19
 70
     1
102
RTVSPropertyOp20
 70
     1
102
RTVSPropertyOp21
 70
     1
102
RTVSPropertyOp22
 70
     1
102
RTVSPropertyOp23
 70
     1
102
RTVSPropertyOp24
 70
     1
102
RTVSPropertyOp25
 70
     1
102
RTVSPropertyOp26
 70
     1
102
RTVSPropertyOp27
 70
     1
102
RTVSPropertyOp28
 70
     1
102
RTVSPropertyOp29
 70
     1
102
RTVSPropertyOp30
 70
     1
102
RTVSPropertyOp31
 70
     1
102
RTVSPropertyOp32
 70
     1
  0
XRECORD
  5
A18
102
{ACAD_REACTORS
330
A17
102
}
330
A17
100
AcDbXrecord
280
     1
102
RTVSPropertyOp0
 70
     1
102
RTVSPropertyOp1
 70
     1
102
RTVSPropertyOp2
 70
     1
102
RTVSPropertyOp3
 70
     1
102
RTVSPropertyOp4
 70
     1
102
RTVSPropertyOp5
 70
     1
102
RTVSPropertyOp6
 70
     1
102
RTVSPropertyOp7
 70
     1
102
RTVSPropertyOp8
 70
     1
102
RTVSPropertyOp9
 70
     1
102
RTVSPropertyOp10
 70
     1
102
RTVSPropertyOp11
 70
     1
102
RTVSPropertyOp12
 70
     1
102
RTVSPropertyOp13
 70
     1
102
RTVSPropertyOp14
 70
     1
102
RTVSPropertyOp15
 70
     1
102
RTVSPropertyOp16
 70
     1
102
RTVSPropertyOp17
 70
     1
102
RTVSPropertyOp18
 70
     1
102
RTVSPropertyOp19
 70
     1
102
RTVSPropertyOp20
 70
     1
102
RTVSPropertyOp21
 70
     1
102
RTVSPropertyOp22
 70
     1
102
RTVSPropertyOp23
 70
     1
102
RTVSPropertyOp24
 70
     1
102
RTVSPropertyOp25
 70
     1
102
RTVSPropertyOp26
 70
     1
102
RTVSPropertyOp27
 70
     1
102
RTVSPropertyOp28
 70
     1
102
RTVSPropertyOp29
 70
     1
102
RTVSPropertyOp30
 70
     1
102
RTVSPropertyOp31
 70
     1
102
RTVSPropertyOp32
 70
     1
  0
XRECORD
  5
A1A
102
{ACAD_REACTORS
330
A19
102
}
330
A19
100
AcDbXrecord
280
     1
102
RTVSPropertyOp0
 70
     1
102
RTVSPropertyOp1
 70
     1
102
RTVSPropertyOp2
 70
     1
102
RTVSPropertyOp3
 70
     1
102
RTVSPropertyOp4
 70
     1
102
RTVSPropertyOp5
 70
     1
102
RTVSPropertyOp6
 70
     1
102
RTVSPropertyOp7
 70
     1
102
RTVSPropertyOp8
 70
     1
102
RTVSPropertyOp9
 70
     1
102
RTVSPropertyOp10
 70
     1
102
RTVSPropertyOp11
 70
     1
102
RTVSPropertyOp12
 70
     1
102
RTVSPropertyOp13
 70
     1
102
RTVSPropertyOp14
 70
     1
102
RTVSPropertyOp15
 70
     1
102
RTVSPropertyOp16
 70
     1
102
RTVSPropertyOp17
 70
     1
102
RTVSPropertyOp18
 70
     1
102
RTVSPropertyOp19
 70
     1
102
RTVSPropertyOp20
 70
     1
102
RTVSPropertyOp21
 70
     1
102
RTVSPropertyOp22
 70
     1
102
RTVSPropertyOp23
 70
     1
102
RTVSPropertyOp24
 70
     1
102
RTVSPropertyOp25
 70
     1
102
RTVSPropertyOp26
 70
     1
102
RTVSPropertyOp27
 70
     1
102
RTVSPropertyOp28
 70
     1
102
RTVSPropertyOp29
 70
     1
102
RTVSPropertyOp30
 70
     1
102
RTVSPropertyOp31
 70
     1
102
RTVSPropertyOp32
 70
     1
  0
XRECORD
  5
A1C
102
{ACAD_REACTORS
330
A1B
102
}
330
A1B
100
AcDbXrecord
280
     1
102
RTVSPropertyOp0
 70
     1
102
RTVSPropertyOp1
 70
     1
102
RTVSPropertyOp2
 70
     1
102
RTVSPropertyOp3
 70
     1
102
RTVSPropertyOp4
 70
     1
102
RTVSPropertyOp5
 70
     1
102
RTVSPropertyOp6
 70
     1
102
RTVSPropertyOp7
 70
     1
102
RTVSPropertyOp8
 70
     1
102
RTVSPropertyOp9
 70
     1
102
RTVSPropertyOp10
 70
     1
102
RTVSPropertyOp11
 70
     1
102
RTVSPropertyOp12
 70
     1
102
RTVSPropertyOp13
 70
     1
102
RTVSPropertyOp14
 70
     1
102
RTVSPropertyOp15
 70
     1
102
RTVSPropertyOp16
 70
     1
102
RTVSPropertyOp17
 70
     1
102
RTVSPropertyOp18
 70
     1
102
RTVSPropertyOp19
 70
     1
102
RTVSPropertyOp20
 70
     1
102
RTVSPropertyOp21
 70
     1
102
RTVSPropertyOp22
 70
     1
102
RTVSPropertyOp23
 70
     1
102
RTVSPropertyOp24
 70
     1
102
RTVSPropertyOp25
 70
     1
102
RTVSPropertyOp26
 70
     1
102
RTVSPropertyOp27
 70
     1
102
RTVSPropertyOp28
 70
     1
102
RTVSPropertyOp29
 70
     1
102
RTVSPropertyOp30
 70
     1
102
RTVSPropertyOp31
 70
     1
102
RTVSPropertyOp32
 70
     1
  0
XRECORD
  5
A1E
102
{ACAD_REACTORS
330
A1D
102
}
330
A1D
100
AcDbXrecord
280
     1
102
RTVSPropertyOp0
 70
     1
102
RTVSPropertyOp1
 70
     1
102
RTVSPropertyOp2
 70
     1
102
RTVSPropertyOp3
 70
     1
102
RTVSPropertyOp4
 70
     1
102
RTVSPropertyOp5
 70
     1
102
RTVSPropertyOp6
 70
     1
102
RTVSPropertyOp7
 70
     1
102
RTVSPropertyOp8
 70
     1
102
RTVSPropertyOp9
 70
     1
102
RTVSPropertyOp10
 70
     1
102
RTVSPropertyOp11
 70
     1
102
RTVSPropertyOp12
 70
     1
102
RTVSPropertyOp13
 70
     1
102
RTVSPropertyOp14
 70
     1
102
RTVSPropertyOp15
 70
     1
102
RTVSPropertyOp16
 70
     1
102
RTVSPropertyOp17
 70
     1
102
RTVSPropertyOp18
 70
     1
102
RTVSPropertyOp19
 70
     1
102
RTVSPropertyOp20
 70
     1
102
RTVSPropertyOp21
 70
     1
102
RTVSPropertyOp22
 70
     1
102
RTVSPropertyOp23
 70
     1
102
RTVSPropertyOp24
 70
     1
102
RTVSPropertyOp25
 70
     1
102
RTVSPropertyOp26
 70
     1
102
RTVSPropertyOp27
 70
     1
102
RTVSPropertyOp28
 70
     1
102
RTVSPropertyOp29
 70
     1
102
RTVSPropertyOp30
 70
     1
102
RTVSPropertyOp31
 70
     1
102
RTVSPropertyOp32
 70
     1
  0
XRECORD
  5
A3D
102
{ACAD_REACTORS
330
A3C
102
}
330
A3C
100
AcDbXrecord
280
     1
102
RTVSPropertyOp0
 70
     1
102
RTVSPropertyOp1
 70
     1
102
RTVSPropertyOp2
 70
     1
102
RTVSPropertyOp3
 70
     1
102
RTVSPropertyOp4
 70
     1
102
RTVSPropertyOp5
 70
     1
102
RTVSPropertyOp6
 70
     1
102
RTVSPropertyOp7
 70
     1
102
RTVSPropertyOp8
 70
     1
102
RTVSPropertyOp9
 70
     1
102
RTVSPropertyOp10
 70
     1
102
RTVSPropertyOp11
 70
     1
102
RTVSPropertyOp12
 70
     1
102
RTVSPropertyOp13
 70
     1
102
RTVSPropertyOp14
 70
     1
102
RTVSPropertyOp15
 70
     1
102
RTVSPropertyOp16
 70
     1
102
RTVSPropertyOp17
 70
     1
102
RTVSPropertyOp18
 70
     1
102
RTVSPropertyOp19
 70
     1
102
RTVSPropertyOp20
 70
     1
102
RTVSPropertyOp21
 70
     1
102
RTVSPropertyOp22
 70
     1
102
RTVSPropertyOp23
 70
     1
102
RTVSPropertyOp24
 70
     1
102
RTVSPropertyOp25
 70
     1
102
RTVSPropertyOp26
 70
     1
102
RTVSPropertyOp27
 70
     1
102
RTVSPropertyOp28
 70
     1
102
RTVSPropertyOp29
 70
     1
102
RTVSPropertyOp30
 70
     1
102
RTVSPropertyOp31
 70
     1
102
RTVSPropertyOp32
 70
     1
  0
XRECORD
  5
A49
102
{ACAD_REACTORS
330
A48
102
}
330
A48
100
AcDbXrecord
280
     1
102
RTVSPropertyOp0
 70
     0
102
RTVSPropertyOp1
 70
     0
102
RTVSPropertyOp2
 70
     0
102
RTVSPropertyOp3
 70
     0
102
RTVSPropertyOp4
 70
     0
102
RTVSPropertyOp5
 70
     0
102
RTVSPropertyOp6
 70
     0
102
RTVSPropertyOp7
 70
     0
102
RTVSPropertyOp8
 70
     0
102
RTVSPropertyOp9
 70
     0
102
RTVSPropertyOp10
 70
     0
102
RTVSPropertyOp11
 70
     0
102
RTVSPropertyOp12
 70
     0
102
RTVSPropertyOp13
 70
     0
102
RTVSPropertyOp14
 70
     2
102
RTVSPropertyOp15
 70
     0
102
RTVSPropertyOp16
 70
     0
102
RTVSPropertyOp17
 70
     0
102
RTVSPropertyOp18
 70
     0
102
RTVSPropertyOp19
 70
     0
102
RTVSPropertyOp20
 70
     0
102
RTVSPropertyOp21
 70
     0
102
RTVSPropertyOp22
 70
     0
102
RTVSPropertyOp23
 70
     0
102
RTVSPropertyOp24
 70
     0
102
RTVSPropertyOp25
 70
     0
102
RTVSPropertyOp26
 70
     0
102
RTVSPropertyOp27
 70
     0
102
RTVSPropertyOp28
 70
     0
102
RTVSPropertyOp29
 70
     0
102
RTVSPropertyOp30
 70
     0
102
RTVSPropertyOp31
 70
     0
102
RTVSPropertyOp32
 70
     0
  0
XRECORD
  5
A32
102
{ACAD_REACTORS
330
A31
102
}
330
A31
100
AcDbXrecord
280
     1
102
RTVSPropertyOp0
 70
     1
102
RTVSPropertyOp1
 70
     1
102
RTVSPropertyOp2
 70
     1
102
RTVSPropertyOp3
 70
     1
102
RTVSPropertyOp4
 70
     1
102
RTVSPropertyOp5
 70
     1
102
RTVSPropertyOp6
 70
     1
102
RTVSPropertyOp7
 70
     1
102
RTVSPropertyOp8
 70
     1
102
RTVSPropertyOp9
 70
     1
102
RTVSPropertyOp10
 70
     1
102
RTVSPropertyOp11
 70
     1
102
RTVSPropertyOp12
 70
     1
102
RTVSPropertyOp13
 70
     1
102
RTVSPropertyOp14
 70
     1
102
RTVSPropertyOp15
 70
     1
102
RTVSPropertyOp16
 70
     1
102
RTVSPropertyOp17
 70
     1
102
RTVSPropertyOp18
 70
     1
102
RTVSPropertyOp19
 70
     1
102
RTVSPropertyOp20
 70
     1
102
RTVSPropertyOp21
 70
     1
102
RTVSPropertyOp22
 70
     1
102
RTVSPropertyOp23
 70
     1
102
RTVSPropertyOp24
 70
     1
102
RTVSPropertyOp25
 70
     1
102
RTVSPropertyOp26
 70
     1
102
RTVSPropertyOp27
 70
     1
102
RTVSPropertyOp28
 70
     1
102
RTVSPropertyOp29
 70
     1
102
RTVSPropertyOp30
 70
     1
102
RTVSPropertyOp31
 70
     1
102
RTVSPropertyOp32
 70
     1
  0
XRECORD
  5
A4B
102
{ACAD_REACTORS
330
A4A
102
}
330
A4A
100
AcDbXrecord
280
     1
102
RTVSPropertyOp0
 70
     0
102
RTVSPropertyOp1
 70
     0
102
RTVSPropertyOp2
 70
     0
102
RTVSPropertyOp3
 70
     0
102
RTVSPropertyOp4
 70
     0
102
RTVSPropertyOp5
 70
     0
102
RTVSPropertyOp6
 70
     0
102
RTVSPropertyOp7
 70
     0
102
RTVSPropertyOp8
 70
     0
102
RTVSPropertyOp9
 70
     0
102
RTVSPropertyOp10
 70
     0
102
RTVSPropertyOp11
 70
     0
102
RTVSPropertyOp12
 70
     0
102
RTVSPropertyOp13
 70
     0
102
RTVSPropertyOp14
 70
     2
102
RTVSPropertyOp15
 70
     0
102
RTVSPropertyOp16
 70
     0
102
RTVSPropertyOp17
 70
     0
102
RTVSPropertyOp18
 70
     0
102
RTVSPropertyOp19
 70
     0
102
RTVSPropertyOp20
 70
     0
102
RTVSPropertyOp21
 70
     0
102
RTVSPropertyOp22
 70
     0
102
RTVSPropertyOp23
 70
     0
102
RTVSPropertyOp24
 70
     0
102
RTVSPropertyOp25
 70
     0
102
RTVSPropertyOp26
 70
     0
102
RTVSPropertyOp27
 70
     0
102
RTVSPropertyOp28
 70
     0
102
RTVSPropertyOp29
 70
     0
102
RTVSPropertyOp30
 70
     0
102
RTVSPropertyOp31
 70
     0
102
RTVSPropertyOp32
 70
     0
  0
XRECORD
  5
A28
102
{ACAD_REACTORS
330
A27
102
}
330
A27
100
AcDbXrecord
280
     1
102
RTVSPropertyOp0
 70
     1
102
RTVSPropertyOp1
 70
     1
102
RTVSPropertyOp2
 70
     1
102
RTVSPropertyOp3
 70
     1
102
RTVSPropertyOp4
 70
     1
102
RTVSPropertyOp5
 70
     1
102
RTVSPropertyOp6
 70
     1
102
RTVSPropertyOp7
 70
     1
102
RTVSPropertyOp8
 70
     1
102
RTVSPropertyOp9
 70
     1
102
RTVSPropertyOp10
 70
     1
102
RTVSPropertyOp11
 70
     1
102
RTVSPropertyOp12
 70
     1
102
RTVSPropertyOp13
 70
     1
102
RTVSPropertyOp14
 70
     1
102
RTVSPropertyOp15
 70
     1
102
RTVSPropertyOp16
 70
     1
102
RTVSPropertyOp17
 70
     1
102
RTVSPropertyOp18
 70
     1
102
RTVSPropertyOp19
 70
     1
102
RTVSPropertyOp20
 70
     1
102
RTVSPropertyOp21
 70
     1
102
RTVSPropertyOp22
 70
     1
102
RTVSPropertyOp23
 70
     1
102
RTVSPropertyOp24
 70
     1
102
RTVSPropertyOp25
 70
     1
102
RTVSPropertyOp26
 70
     1
102
RTVSPropertyOp27
 70
     1
102
RTVSPropertyOp28
 70
     1
102
RTVSPropertyOp29
 70
     1
102
RTVSPropertyOp30
 70
     1
102
RTVSPropertyOp31
 70
     1
102
RTVSPropertyOp32
 70
     1
  0
XRECORD
  5
A47
102
{ACAD_REACTORS
330
A46
102
}
330
A46
100
AcDbXrecord
280
     1
102
RTVSPropertyOp0
 70
     1
102
RTVSPropertyOp1
 70
     1
102
RTVSPropertyOp2
 70
     1
102
RTVSPropertyOp3
 70
     1
102
RTVSPropertyOp4
 70
     1
102
RTVSPropertyOp5
 70
     1
102
RTVSPropertyOp6
 70
     1
102
RTVSPropertyOp7
 70
     1
102
RTVSPropertyOp8
 70
     1
102
RTVSPropertyOp9
 70
     1
102
RTVSPropertyOp10
 70
     1
102
RTVSPropertyOp11
 70
     1
102
RTVSPropertyOp12
 70
     1
102
RTVSPropertyOp13
 70
     1
102
RTVSPropertyOp14
 70
     1
102
RTVSPropertyOp15
 70
     1
102
RTVSPropertyOp16
 70
     1
102
RTVSPropertyOp17
 70
     1
102
RTVSPropertyOp18
 70
     1
102
RTVSPropertyOp19
 70
     1
102
RTVSPropertyOp20
 70
     1
102
RTVSPropertyOp21
 70
     1
102
RTVSPropertyOp22
 70
     1
102
RTVSPropertyOp23
 70
     1
102
RTVSPropertyOp24
 70
     1
102
RTVSPropertyOp25
 70
     1
102
RTVSPropertyOp26
 70
     1
102
RTVSPropertyOp27
 70
     1
102
RTVSPropertyOp28
 70
     1
102
RTVSPropertyOp29
 70
     1
102
RTVSPropertyOp30
 70
     1
102
RTVSPropertyOp31
 70
     1
102
RTVSPropertyOp32
 70
     1
  0
XRECORD
  5
A45
102
{ACAD_REACTORS
330
A44
102
}
330
A44
100
AcDbXrecord
280
     1
102
RTVSPropertyOp0
 70
     1
102
RTVSPropertyOp1
 70
     1
102
RTVSPropertyOp2
 70
     1
102
RTVSPropertyOp3
 70
     1
102
RTVSPropertyOp4
 70
     1
102
RTVSPropertyOp5
 70
     1
102
RTVSPropertyOp6
 70
     1
102
RTVSPropertyOp7
 70
     1
102
RTVSPropertyOp8
 70
     1
102
RTVSPropertyOp9
 70
     1
102
RTVSPropertyOp10
 70
     1
102
RTVSPropertyOp11
 70
     1
102
RTVSPropertyOp12
 70
     1
102
RTVSPropertyOp13
 70
     1
102
RTVSPropertyOp14
 70
     1
102
RTVSPropertyOp15
 70
     1
102
RTVSPropertyOp16
 70
     1
102
RTVSPropertyOp17
 70
     1
102
RTVSPropertyOp18
 70
     1
102
RTVSPropertyOp19
 70
     1
102
RTVSPropertyOp20
 70
     1
102
RTVSPropertyOp21
 70
     1
102
RTVSPropertyOp22
 70
     1
102
RTVSPropertyOp23
 70
     1
102
RTVSPropertyOp24
 70
     1
102
RTVSPropertyOp25
 70
     1
102
RTVSPropertyOp26
 70
     1
102
RTVSPropertyOp27
 70
     1
102
RTVSPropertyOp28
 70
     1
102
RTVSPropertyOp29
 70
     1
102
RTVSPropertyOp30
 70
     1
102
RTVSPropertyOp31
 70
     1
102
RTVSPropertyOp32
 70
     1
  0
XRECORD
  5
A3F
102
{ACAD_REACTORS
330
A3E
102
}
330
A3E
100
AcDbXrecord
280
     1
102
RTVSPropertyOp0
 70
     1
102
RTVSPropertyOp1
 70
     1
102
RTVSPropertyOp2
 70
     1
102
RTVSPropertyOp3
 70
     1
102
RTVSPropertyOp4
 70
     1
102
RTVSPropertyOp5
 70
     1
102
RTVSPropertyOp6
 70
     1
102
RTVSPropertyOp7
 70
     1
102
RTVSPropertyOp8
 70
     1
102
RTVSPropertyOp9
 70
     1
102
RTVSPropertyOp10
 70
     1
102
RTVSPropertyOp11
 70
     1
102
RTVSPropertyOp12
 70
     1
102
RTVSPropertyOp13
 70
     1
102
RTVSPropertyOp14
 70
     1
102
RTVSPropertyOp15
 70
     1
102
RTVSPropertyOp16
 70
     1
102
RTVSPropertyOp17
 70
     1
102
RTVSPropertyOp18
 70
     1
102
RTVSPropertyOp19
 70
     1
102
RTVSPropertyOp20
 70
     1
102
RTVSPropertyOp21
 70
     1
102
RTVSPropertyOp22
 70
     1
102
RTVSPropertyOp23
 70
     1
102
RTVSPropertyOp24
 70
     1
102
RTVSPropertyOp25
 70
     1
102
RTVSPropertyOp26
 70
     1
102
RTVSPropertyOp27
 70
     1
102
RTVSPropertyOp28
 70
     1
102
RTVSPropertyOp29
 70
     1
102
RTVSPropertyOp30
 70
     1
102
RTVSPropertyOp31
 70
     1
102
RTVSPropertyOp32
 70
     1
  0
XRECORD
  5
A41
102
{ACAD_REACTORS
330
A40
102
}
330
A40
100
AcDbXrecord
280
     1
102
RTVSPropertyOp0
 70
     1
102
RTVSPropertyOp1
 70
     1
102
RTVSPropertyOp2
 70
     1
102
RTVSPropertyOp3
 70
     1
102
RTVSPropertyOp4
 70
     1
102
RTVSPropertyOp5
 70
     1
102
RTVSPropertyOp6
 70
     1
102
RTVSPropertyOp7
 70
     1
102
RTVSPropertyOp8
 70
     1
102
RTVSPropertyOp9
 70
     1
102
RTVSPropertyOp10
 70
     1
102
RTVSPropertyOp11
 70
     1
102
RTVSPropertyOp12
 70
     1
102
RTVSPropertyOp13
 70
     1
102
RTVSPropertyOp14
 70
     1
102
RTVSPropertyOp15
 70
     1
102
RTVSPropertyOp16
 70
     1
102
RTVSPropertyOp17
 70
     1
102
RTVSPropertyOp18
 70
     1
102
RTVSPropertyOp19
 70
     1
102
RTVSPropertyOp20
 70
     1
102
RTVSPropertyOp21
 70
     1
102
RTVSPropertyOp22
 70
     1
102
RTVSPropertyOp23
 70
     1
102
RTVSPropertyOp24
 70
     1
102
RTVSPropertyOp25
 70
     1
102
RTVSPropertyOp26
 70
     1
102
RTVSPropertyOp27
 70
     1
102
RTVSPropertyOp28
 70
     1
102
RTVSPropertyOp29
 70
     1
102
RTVSPropertyOp30
 70
     1
102
RTVSPropertyOp31
 70
     1
102
RTVSPropertyOp32
 70
     1
  0
XRECORD
  5
A30
102
{ACAD_REACTORS
330
A2F
102
}
330
A2F
100
AcDbXrecord
280
     1
102
RTVSPropertyOp0
 70
     1
102
RTVSPropertyOp1
 70
     1
102
RTVSPropertyOp2
 70
     1
102
RTVSPropertyOp3
 70
     1
102
RTVSPropertyOp4
 70
     1
102
RTVSPropertyOp5
 70
     1
102
RTVSPropertyOp6
 70
     1
102
RTVSPropertyOp7
 70
     1
102
RTVSPropertyOp8
 70
     1
102
RTVSPropertyOp9
 70
     1
102
RTVSPropertyOp10
 70
     1
102
RTVSPropertyOp11
 70
     1
102
RTVSPropertyOp12
 70
     1
102
RTVSPropertyOp13
 70
     1
102
RTVSPropertyOp14
 70
     1
102
RTVSPropertyOp15
 70
     1
102
RTVSPropertyOp16
 70
     1
102
RTVSPropertyOp17
 70
     1
102
RTVSPropertyOp18
 70
     1
102
RTVSPropertyOp19
 70
     1
102
RTVSPropertyOp20
 70
     1
102
RTVSPropertyOp21
 70
     1
102
RTVSPropertyOp22
 70
     1
102
RTVSPropertyOp23
 70
     1
102
RTVSPropertyOp24
 70
     1
102
RTVSPropertyOp25
 70
     1
102
RTVSPropertyOp26
 70
     1
102
RTVSPropertyOp27
 70
     1
102
RTVSPropertyOp28
 70
     1
102
RTVSPropertyOp29
 70
     1
102
RTVSPropertyOp30
 70
     1
102
RTVSPropertyOp31
 70
     1
102
RTVSPropertyOp32
 70
     1
  0
XRECORD
  5
A3B
102
{ACAD_REACTORS
330
A3A
102
}
330
A3A
100
AcDbXrecord
280
     1
102
RTVSPropertyOp0
 70
     1
102
RTVSPropertyOp1
 70
     1
102
RTVSPropertyOp2
 70
     1
102
RTVSPropertyOp3
 70
     1
102
RTVSPropertyOp4
 70
     1
102
RTVSPropertyOp5
 70
     1
102
RTVSPropertyOp6
 70
     1
102
RTVSPropertyOp7
 70
     1
102
RTVSPropertyOp8
 70
     1
102
RTVSPropertyOp9
 70
     1
102
RTVSPropertyOp10
 70
     1
102
RTVSPropertyOp11
 70
     1
102
RTVSPropertyOp12
 70
     1
102
RTVSPropertyOp13
 70
     1
102
RTVSPropertyOp14
 70
     1
102
RTVSPropertyOp15
 70
     1
102
RTVSPropertyOp16
 70
     1
102
RTVSPropertyOp17
 70
     1
102
RTVSPropertyOp18
 70
     1
102
RTVSPropertyOp19
 70
     1
102
RTVSPropertyOp20
 70
     1
102
RTVSPropertyOp21
 70
     1
102
RTVSPropertyOp22
 70
     1
102
RTVSPropertyOp23
 70
     1
102
RTVSPropertyOp24
 70
     1
102
RTVSPropertyOp25
 70
     1
102
RTVSPropertyOp26
 70
     1
102
RTVSPropertyOp27
 70
     1
102
RTVSPropertyOp28
 70
     1
102
RTVSPropertyOp29
 70
     1
102
RTVSPropertyOp30
 70
     1
102
RTVSPropertyOp31
 70
     1
102
RTVSPropertyOp32
 70
     1
  0
XRECORD
  5
A43
102
{ACAD_REACTORS
330
A42
102
}
330
A42
100
AcDbXrecord
280
     1
102
RTVSPropertyOp0
 70
     1
102
RTVSPropertyOp1
 70
     1
102
RTVSPropertyOp2
 70
     1
102
RTVSPropertyOp3
 70
     1
102
RTVSPropertyOp4
 70
     1
102
RTVSPropertyOp5
 70
     1
102
RTVSPropertyOp6
 70
     1
102
RTVSPropertyOp7
 70
     1
102
RTVSPropertyOp8
 70
     1
102
RTVSPropertyOp9
 70
     1
102
RTVSPropertyOp10
 70
     1
102
RTVSPropertyOp11
 70
     1
102
RTVSPropertyOp12
 70
     1
102
RTVSPropertyOp13
 70
     1
102
RTVSPropertyOp14
 70
     1
102
RTVSPropertyOp15
 70
     1
102
RTVSPropertyOp16
 70
     1
102
RTVSPropertyOp17
 70
     1
102
RTVSPropertyOp18
 70
     1
102
RTVSPropertyOp19
 70
     1
102
RTVSPropertyOp20
 70
     1
102
RTVSPropertyOp21
 70
     1
102
RTVSPropertyOp22
 70
     1
102
RTVSPropertyOp23
 70
     1
102
RTVSPropertyOp24
 70
     1
102
RTVSPropertyOp25
 70
     1
102
RTVSPropertyOp26
 70
     1
102
RTVSPropertyOp27
 70
     1
102
RTVSPropertyOp28
 70
     1
102
RTVSPropertyOp29
 70
     1
102
RTVSPropertyOp30
 70
     1
102
RTVSPropertyOp31
 70
     1
102
RTVSPropertyOp32
 70
     1
  0
ENDSEC
  0
EOF
